<?xml version="1.0" standalone="no"?>
<!DOCTYPE svg PUBLIC "-//W3C//DTD SVG 1.1//EN" "http://www.w3.org/Graphics/SVG/1.1/DTD/svg11.dtd" >
<svg xmlns="http://www.w3.org/2000/svg">
<metadata>Generated by IcoMoon</metadata>
<defs>
<font id="icomoon" horiz-adv-x="1024">
<font-face units-per-em="1024" ascent="960" descent="-64" />
<missing-glyph horiz-adv-x="1024" />
<glyph unicode="&#x20;" horiz-adv-x="512" d="" />
<glyph unicode="&#xe900;" glyph-name="arrow-circle-top" d="M542.293 648.96c-3.93 3.838-8.567 6.88-13.653 8.96-5.261 2.242-10.918 3.402-16.64 3.413h-4.267c-3.955-0.195-7.851-1.061-11.52-2.56-2.927-1.141-5.662-2.724-8.107-4.693-1.946-1.132-3.802-2.416-5.547-3.84l-128-122.027c-8.204-7.808-12.97-18.556-13.25-29.879-0.28-11.319 3.949-22.289 11.757-30.494s18.555-12.971 29.878-13.252c11.322-0.277 22.292 3.951 30.496 11.759l55.893 52.48v-241.493c0-11.315 4.497-22.17 12.497-30.17s18.854-12.497 30.17-12.497c11.315 0 22.17 4.497 30.17 12.497s12.497 18.854 12.497 30.17v238.507l55.040-55.467c3.968-3.998 8.687-7.172 13.884-9.34 5.201-2.167 10.778-3.281 16.41-3.281s11.209 1.114 16.41 3.281c5.197 2.167 9.916 5.342 13.884 9.34 3.998 3.968 7.172 8.687 9.34 13.884 2.167 5.201 3.281 10.778 3.281 16.41s-1.114 11.209-3.281 16.41c-2.167 5.197-5.342 9.916-9.34 13.884l-128 128zM512 874.667c-84.386 0-166.878-25.024-237.043-71.906s-124.852-113.519-157.145-191.482c-32.294-77.962-40.743-163.752-24.28-246.516s57.099-158.788 116.77-218.462c59.67-59.669 135.695-100.305 218.46-116.77 82.765-16.461 168.555-8.013 246.515 24.282 77.965 32.294 144.602 86.98 191.484 157.146s71.906 152.657 71.906 237.043c0 56.030-11.038 111.513-32.478 163.278s-52.868 98.801-92.489 138.421c-39.62 39.619-86.656 71.048-138.423 92.49-51.763 21.442-107.247 32.478-163.277 32.478zM512 106.667c-67.507 0-133.502 20.019-189.635 57.523-56.132 37.508-99.881 90.816-125.716 153.186s-32.594 131.004-19.424 197.214c13.17 66.213 45.679 127.033 93.416 174.769s108.556 80.245 174.769 93.416c66.21 13.17 134.844 6.411 197.214-19.424s115.678-69.584 153.186-125.716c37.504-56.132 57.523-122.123 57.523-189.635 0-90.526-35.959-177.348-99.972-241.361-64.013-64.009-150.835-99.972-241.361-99.972z" />
<glyph unicode="&#xe901;" glyph-name="arrow-up" d="M512.469 597.31c9.967 0.020 19.627-3.453 27.307-9.813l256-213.331c8.713-7.245 14.191-17.651 15.232-28.932 1.041-11.285-2.445-22.515-9.685-31.228-7.245-8.717-17.651-14.195-28.932-15.236-11.281-1.037-22.515 2.445-31.228 9.69l-228.693 191.147-228.695-184.32c-4.364-3.546-9.386-6.191-14.776-7.791-5.391-1.596-11.043-2.112-16.634-1.519-5.591 0.597-11.008 2.291-15.942 4.983-4.934 2.697-9.286 6.34-12.808 10.726-3.907 4.386-6.866 9.532-8.692 15.117-1.826 5.581-2.479 11.482-1.918 17.331s2.323 11.516 5.177 16.653c2.854 5.137 6.737 9.626 11.407 13.193l256.002 206.078c7.893 5.356 17.361 7.909 26.88 7.253z" />
<glyph unicode="&#xe902;" glyph-name="arrow-down" d="M511.531 298.692c-9.967-0.021-19.627 3.452-27.307 9.813l-255.998 213.333c-8.713 7.241-14.193 17.647-15.233 28.93s2.444 22.516 9.687 31.229c7.242 8.713 17.649 14.193 28.931 15.233s22.516-2.444 31.229-9.686l228.691-191.145 228.693 184.318c4.365 3.544 9.387 6.191 14.78 7.788 5.389 1.597 11.042 2.113 16.631 1.519 5.594-0.595 11.008-2.289 15.945-4.984 4.932-2.695 9.284-6.339 12.804-10.723 3.908-4.387 6.869-9.533 8.695-15.118s2.479-11.485 1.916-17.333c-0.559-5.848-2.321-11.516-5.175-16.653-2.854-5.133-6.737-9.626-11.409-13.188l-256-206.080c-7.893-5.359-17.361-7.91-26.88-7.253z" />
<glyph unicode="&#xe903;" glyph-name="arrow-right" d="M661.308 447.531c0.021-9.967-3.452-19.631-9.813-27.307l-213.333-256c-7.241-8.713-17.648-14.191-28.931-15.232s-22.515 2.445-31.229 9.685c-8.713 7.245-14.193 17.651-15.233 28.932s2.444 22.515 9.686 31.228l191.146 228.693-184.319 228.695c-3.544 4.364-6.191 9.386-7.788 14.776s-2.113 11.043-1.518 16.634c0.594 5.591 2.288 11.008 4.983 15.942s6.339 9.286 10.723 12.807c4.387 3.907 9.534 6.867 15.118 8.692s11.485 2.479 17.333 1.918c5.848-0.561 11.517-2.323 16.654-5.177 5.133-2.854 9.626-6.737 13.188-11.407l206.080-256.001c5.355-7.898 7.91-17.361 7.253-26.88z" />
<glyph unicode="&#xe904;" glyph-name="bill" d="M512.068 320c70.69 0 128 57.306 128 128s-57.31 128-128 128c-70.694 0-128-57.306-128-128s57.306-128 128-128zM469.402 448c0 23.565 19.102 42.667 42.667 42.667s42.667-19.102 42.667-42.667c0-23.565-19.102-42.667-42.667-42.667s-42.667 19.102-42.667 42.667zM810.735 746.667h-597.334c-70.693 0-128-57.308-128-128v-341.333c0-70.694 57.307-128 128-128h597.334c70.69 0 128 57.306 128 128v341.333c0 70.692-57.31 128-128 128zM781.513 661.333h29.222c23.565 0 42.667-19.102 42.667-42.667v-29.221c-6.558-2.771-13.769-4.303-21.333-4.303-30.298 0-54.857 24.56-54.857 54.857 0 7.567 1.532 14.775 4.301 21.333zM832.068 512c7.266 0 14.396 0.606 21.333 1.771v-131.541c-6.938 1.165-14.067 1.771-21.333 1.771-70.694 0-128-57.306-128-128 0-7.27 0.606-14.396 1.771-21.333h-387.541c1.164 6.938 1.77 14.063 1.77 21.333 0 70.694-57.308 128-128 128-7.269 0-14.396-0.606-21.333-1.771v131.541c6.938-1.165 14.065-1.771 21.333-1.771 70.692 0 128 57.308 128 128 0 7.269-0.606 14.396-1.77 21.333h387.541c-1.165-6.938-1.771-14.065-1.771-21.333 0-70.692 57.306-128 128-128zM853.402 277.333c0-23.565-19.102-42.667-42.667-42.667h-29.222c-2.769 6.558-4.301 13.769-4.301 21.333 0 30.298 24.559 54.857 54.857 54.857 7.565 0 14.775-1.532 21.333-4.301v-29.222zM246.925 256c0-7.565-1.532-14.775-4.303-21.333h-29.221c-23.564 0-42.667 19.102-42.667 42.667v29.222c6.558 2.769 13.766 4.301 21.333 4.301 30.297 0 54.857-24.559 54.857-54.857zM170.735 589.446v29.221c0 23.564 19.102 42.667 42.667 42.667h29.221c2.771-6.558 4.303-13.767 4.303-21.333 0-30.297-24.56-54.857-54.857-54.857-7.567 0-14.775 1.532-21.333 4.303z" />
<glyph unicode="&#xe905;" glyph-name="billing" d="M512 874.667c-84.386 0-166.878-25.024-237.043-71.906s-124.852-113.519-157.145-191.482c-32.294-77.962-40.743-163.752-24.28-246.516s57.099-158.788 116.77-218.462c59.67-59.669 135.695-100.305 218.46-116.77 82.765-16.461 168.555-8.013 246.515 24.282 77.965 32.294 144.602 86.98 191.484 157.146s71.906 152.657 71.906 237.043c0 56.030-11.038 111.513-32.478 163.278s-52.868 98.801-92.489 138.421c-39.62 39.619-86.656 71.048-138.423 92.49-51.763 21.442-107.247 32.478-163.277 32.478zM512 106.667c-67.507 0-133.502 20.019-189.635 57.523-56.132 37.508-99.881 90.816-125.716 153.186s-32.594 131.004-19.424 197.214c13.17 66.213 45.679 127.033 93.416 174.769s108.556 80.245 174.769 93.416c66.21 13.17 134.844 6.411 197.214-19.424s115.678-69.584 153.186-125.716c37.504-56.132 57.523-122.123 57.523-189.635 0-90.526-35.959-177.348-99.972-241.361-64.013-64.009-150.835-99.972-241.361-99.972zM554.658 233.916v-44.762c0-21.99-19.098-39.821-42.658-39.821s-42.658 17.83-42.658 39.821v44.382c-20.651 4.582-40.35 12.322-58.296 22.899-17.618 10.274-30.246 20.847-37.818 28.932-15.354 16.572-13.478 41.613 4.198 56.034 17.676 14.417 44.51 12.796 60.048-3.631 2.432-2.607 8.977-8.081 18.812-13.815 16.512-9.638 35.089-15.334 55.522-15.334 40.102 0 66.295 22.182 64.055 41.378-2.112 17.997-19.904 31.855-76.702 59.354l-6.805 3.307c-0.252 0.115-0.499 0.235-0.747 0.358l-6.037 2.927c-82.824 40.081-115.736 65.707-122.242 121.396-6.847 58.499 40.036 109.153 106.011 124.743v44.76c0 21.993 19.098 39.822 42.658 39.822s42.658-17.829 42.658-39.822v-44.382c20.651-4.582 40.35-12.319 58.295-22.898 17.621-10.274 30.246-20.847 37.82-28.931 15.351-16.575 13.478-41.615-4.198-56.034s-44.51-12.797-60.049 3.628c-2.432 2.608-8.977 8.084-18.812 13.818-16.508 9.637-35.089 15.332-55.522 15.332-40.098 0-66.295-22.181-64.055-41.376 2.112-17.998 19.904-31.856 76.706-59.355 4.527-2.189 9.058-4.382 13.585-6.571 82.825-40.102 115.738-65.745 122.244-121.417 6.844-58.5-40.038-109.154-106.014-124.745z" />
<glyph unicode="&#xe906;" glyph-name="book-outline" d="M810.667 832h-512c-33.948 0-66.505-13.486-90.51-37.49s-37.49-56.562-37.49-90.51v-512c0-33.946 13.486-66.505 37.49-90.509s56.562-37.491 90.51-37.491h512c11.315 0 22.17 4.497 30.17 12.497s12.497 18.854 12.497 30.17v682.667c0 11.316-4.497 22.168-12.497 30.17s-18.854 12.497-30.17 12.497v0zM298.667 746.667h469.333v-426.667h-469.333c-14.555-0.115-28.985-2.714-42.667-7.68v391.68c0 11.316 4.495 22.168 12.497 30.17s18.854 12.497 30.17 12.497v0zM298.667 149.333c-11.316 0-22.168 4.497-30.17 12.497s-12.497 18.854-12.497 30.17c0 11.315 4.495 22.17 12.497 30.17s18.854 12.497 30.17 12.497h469.333v-85.333h-469.333z" />
<glyph unicode="&#xe907;" glyph-name="bulb-filled" d="M512 661.333c-44.774 0-88.415-14.088-124.738-40.268s-63.488-63.126-77.648-105.605c-14.159-42.475-14.594-88.333-1.244-131.068 13.35-42.739 39.81-80.196 75.63-107.059v-170.667c0-22.63 8.99-44.335 24.994-60.339s37.709-24.994 60.34-24.994h85.333c22.63 0 44.335 8.99 60.339 24.994s24.994 37.709 24.994 60.339v170.667c35.819 26.863 62.281 64.32 75.631 107.059 13.35 42.735 12.915 88.593-1.246 131.068-14.157 42.479-41.323 79.424-77.645 105.605-36.326 26.18-79.966 40.268-124.74 40.268zM512 704c11.315 0 22.17 4.495 30.17 12.497s12.497 18.854 12.497 30.17v85.333c0 11.316-4.497 22.168-12.497 30.17s-18.854 12.497-30.17 12.497c-11.315 0-22.17-4.495-30.17-12.497s-12.497-18.854-12.497-30.17v-85.333c0-11.316 4.497-22.168 12.497-30.17s18.854-12.497 30.17-12.497zM896 490.667h-85.333c-11.315 0-22.17-4.497-30.17-12.497s-12.497-18.854-12.497-30.17c0-11.315 4.497-22.17 12.497-30.17s18.854-12.497 30.17-12.497h85.333c11.315 0 22.17 4.497 30.17 12.497s12.497 18.854 12.497 30.17c0 11.315-4.497 22.17-12.497 30.17s-18.854 12.497-30.17 12.497zM213.333 490.667h-85.333c-11.316 0-22.168-4.497-30.17-12.497s-12.497-18.854-12.497-30.17c0-11.315 4.495-22.17 12.497-30.17s18.854-12.497 30.17-12.497h85.333c11.316 0 22.168 4.497 30.17 12.497s12.497 18.854 12.497 30.17c0 11.315-4.495 22.17-12.497 30.17s-18.854 12.497-30.17 12.497zM326.827 686.080l-61.44 60.587c-8.317 7.865-19.418 12.103-30.86 11.783s-22.289-5.172-30.153-13.489c-7.865-8.317-12.103-19.418-11.783-30.86s5.172-22.289 13.489-30.153l61.44-59.307c4.123-3.981 9.006-7.091 14.357-9.143s11.061-3.006 16.789-2.803c5.747 0.022 11.431 1.205 16.71 3.478s10.044 5.589 14.010 9.749c7.616 8.328 11.623 19.334 11.143 30.609s-5.407 21.901-13.703 29.551zM818.773 744.533c-7.996 7.947-18.807 12.407-30.080 12.407s-22.084-4.46-30.080-12.407l-61.44-58.453c-7.949-7.994-12.407-18.808-12.407-30.080s4.459-22.086 12.407-30.080c3.964-4.16 8.73-7.476 14.012-9.749 5.278-2.273 10.961-3.456 16.708-3.478 10.987 0.044 21.53 4.323 29.44 11.947l61.44 59.307c3.998 3.966 7.172 8.685 9.34 13.885s3.281 10.776 3.281 16.409c0 5.632-1.114 11.209-3.281 16.409s-5.342 9.918-9.34 13.885z" />
<glyph unicode="&#xe908;" glyph-name="bulbtip" d="M512 661.333c-44.774 0-88.415-14.088-124.738-40.268s-63.488-63.126-77.648-105.605c-14.159-42.475-14.594-88.333-1.244-131.068 13.35-42.739 39.81-80.196 75.63-107.059v-170.667c0-22.63 8.99-44.335 24.994-60.339s37.709-24.994 60.34-24.994h85.333c22.63 0 44.335 8.99 60.339 24.994s24.994 37.709 24.994 60.339v170.667c35.819 26.863 62.281 64.32 75.631 107.059 13.35 42.735 12.915 88.593-1.246 131.068-14.157 42.479-41.323 79.424-77.645 105.605-36.326 26.18-79.966 40.268-124.74 40.268zM576 337.493c-6.511-3.759-11.913-9.173-15.659-15.689-3.746-6.519-5.705-13.914-5.675-21.431v-193.707h-85.333v193.707c0.030 7.518-1.929 14.912-5.675 21.431-3.746 6.515-9.148 11.93-15.659 15.689-19.409 11.204-35.534 27.311-46.765 46.703s-17.174 41.395-17.235 63.804c0 33.946 13.486 66.505 37.49 90.51s56.564 37.49 90.51 37.49c33.946 0 66.505-13.486 90.509-37.49s37.491-56.564 37.491-90.51c-0.060-22.409-6.003-44.412-17.233-63.804-11.234-19.392-27.358-35.499-46.767-46.703zM512 704c11.315 0 22.17 4.495 30.17 12.497s12.497 18.854 12.497 30.17v85.333c0 11.316-4.497 22.168-12.497 30.17s-18.854 12.497-30.17 12.497c-11.315 0-22.17-4.495-30.17-12.497s-12.497-18.854-12.497-30.17v-85.333c0-11.316 4.497-22.168 12.497-30.17s18.854-12.497 30.17-12.497zM896 490.667h-85.333c-11.315 0-22.17-4.497-30.17-12.497s-12.497-18.854-12.497-30.17c0-11.315 4.497-22.17 12.497-30.17s18.854-12.497 30.17-12.497h85.333c11.315 0 22.17 4.497 30.17 12.497s12.497 18.854 12.497 30.17c0 11.315-4.497 22.17-12.497 30.17s-18.854 12.497-30.17 12.497zM213.333 490.667h-85.333c-11.316 0-22.168-4.497-30.17-12.497s-12.497-18.854-12.497-30.17c0-11.315 4.495-22.17 12.497-30.17s18.854-12.497 30.17-12.497h85.333c11.316 0 22.168 4.497 30.17 12.497s12.497 18.854 12.497 30.17c0 11.315-4.495 22.17-12.497 30.17s-18.854 12.497-30.17 12.497zM326.827 686.080l-61.44 60.587c-8.317 7.865-19.418 12.103-30.86 11.783s-22.289-5.172-30.153-13.489c-7.865-8.317-12.103-19.418-11.783-30.86s5.172-22.289 13.489-30.153l61.44-59.307c4.123-3.981 9.006-7.091 14.357-9.143s11.061-3.006 16.789-2.803c5.747 0.022 11.431 1.205 16.71 3.478s10.044 5.589 14.010 9.749c7.616 8.328 11.623 19.334 11.143 30.609s-5.407 21.901-13.703 29.551zM818.773 744.533c-7.996 7.947-18.807 12.407-30.080 12.407s-22.084-4.46-30.080-12.407l-61.44-58.453c-7.949-7.994-12.407-18.808-12.407-30.080s4.459-22.086 12.407-30.080c3.964-4.16 8.73-7.476 14.012-9.749 5.278-2.273 10.961-3.456 16.708-3.478 10.987 0.044 21.53 4.323 29.44 11.947l61.44 59.307c3.998 3.966 7.172 8.685 9.34 13.885s3.281 10.776 3.281 16.409c0 5.632-1.114 11.209-3.281 16.409s-5.342 9.918-9.34 13.885z" />
<glyph unicode="&#xe909;" glyph-name="cc" d="M294.833 398.11c-23.564 0-42.667-19.102-42.667-42.667s19.102-42.667 42.667-42.667h128c23.562 0 42.668 19.102 42.668 42.667s-19.106 42.667-42.668 42.667h-128zM213.333 746.667c-70.692 0-128-57.308-128-128v-341.333c0-70.694 57.308-128 128-128h597.333c70.694 0 128 57.306 128 128v341.333c0 70.692-57.306 128-128 128h-597.333zM810.667 661.333c23.565 0 42.667-19.102 42.667-42.667v-49.89h-682.667v49.89c0 23.564 19.103 42.667 42.667 42.667h597.333zM170.667 277.333v206.11h682.667v-206.11c0-23.565-19.102-42.667-42.667-42.667h-597.333c-23.564 0-42.667 19.102-42.667 42.667z" />
<glyph unicode="&#xe90a;" glyph-name="check-circle" d="M512 874.667c-84.386 0-166.878-25.024-237.043-71.906s-124.852-113.519-157.145-191.482c-32.294-77.962-40.743-163.752-24.28-246.516s57.099-158.788 116.77-218.462c59.67-59.669 135.695-100.305 218.46-116.77 82.765-16.461 168.555-8.013 246.515 24.282 77.965 32.294 144.602 86.98 191.484 157.146s71.906 152.657 71.906 237.043c0 56.030-11.038 111.513-32.478 163.278s-52.868 98.801-92.489 138.421c-39.62 39.619-86.656 71.048-138.423 92.49-51.763 21.442-107.247 32.478-163.277 32.478zM512 106.667c-67.507 0-133.502 20.019-189.635 57.523-56.132 37.508-99.881 90.816-125.716 153.186s-32.594 131.004-19.424 197.214c13.17 66.213 45.679 127.033 93.416 174.769s108.556 80.245 174.769 93.416c66.21 13.17 134.844 6.411 197.214-19.424s115.678-69.584 153.186-125.716c37.504-56.132 57.523-122.123 57.523-189.635 0-90.526-35.959-177.348-99.972-241.361-64.013-64.009-150.835-99.972-241.361-99.972zM627.2 602.027l-161.28-213.333-69.547 90.027c-6.959 8.939-17.184 14.75-28.427 16.149s-22.58-1.724-31.52-8.683c-8.94-6.959-14.748-17.186-16.148-28.429-1.4-11.238 1.723-22.579 8.682-31.518l103.68-132.693c4.019-5.086 9.143-9.186 14.98-11.998 5.841-2.807 12.245-4.25 18.726-4.215 6.515 0.017 12.941 1.523 18.786 4.407 5.841 2.884 10.944 7.070 14.921 12.233l194.987 256c6.903 9.053 9.929 20.477 8.405 31.759-1.519 11.282-7.458 21.498-16.512 28.401s-20.476 9.926-31.757 8.406c-11.285-1.52-21.5-7.46-28.403-16.513h0.427z" />
<glyph unicode="&#xe90b;" glyph-name="check-filled" d="M512 874.667c-84.386 0-166.878-25.024-237.043-71.906s-124.852-113.519-157.145-191.482c-32.294-77.962-40.743-163.752-24.28-246.516s57.099-158.788 116.77-218.462c59.67-59.669 135.695-100.305 218.46-116.77 82.765-16.461 168.555-8.013 246.515 24.282 77.965 32.294 144.602 86.98 191.484 157.146s71.906 152.657 71.906 237.043c0 56.030-11.038 111.513-32.478 163.278s-52.868 98.801-92.489 138.421c-39.62 39.619-86.656 71.048-138.423 92.49-51.763 21.442-107.247 32.478-163.277 32.478v0zM695.467 549.973l-194.987-256c-3.977-5.163-9.079-9.348-14.921-12.233-5.845-2.884-12.271-4.39-18.786-4.407-6.481-0.034-12.885 1.408-18.726 4.215-5.837 2.812-10.961 6.912-14.98 11.998l-104.107 132.693c-3.446 4.425-5.986 9.489-7.476 14.895-1.489 5.41-1.9 11.059-1.206 16.623 0.693 5.568 2.476 10.944 5.247 15.821s6.475 9.161 10.901 12.608c8.94 6.959 20.278 10.082 31.52 8.683 5.566-0.695 10.942-2.479 15.82-5.248s9.161-6.477 12.607-10.901l69.547-88.747 161.28 213.333c3.418 4.483 7.684 8.248 12.557 11.081 4.877 2.833 10.257 4.679 15.846 5.432 5.585 0.753 11.264 0.398 16.713-1.044s10.56-3.944 15.044-7.362c4.484-3.418 8.247-7.685 11.081-12.558s4.681-10.257 5.431-15.843c0.755-5.586 0.397-11.266-1.045-16.716s-3.942-10.561-7.36-15.043v-1.28z" />
<glyph unicode="&#xe90c;" glyph-name="check-square" d="M853.333 455.253c-11.315 0-22.17-4.497-30.17-12.497s-12.497-18.854-12.497-30.17v-237.653c0-6.788-2.697-13.299-7.497-18.103-4.804-4.8-11.315-7.497-18.103-7.497h-546.133c-6.79 0-13.301 2.697-18.102 7.497-4.801 4.804-7.498 11.315-7.498 18.103v546.133c0 6.79 2.697 13.301 7.498 18.102s11.312 7.498 18.102 7.498h408.32c11.315 0 22.17 4.495 30.17 12.497s12.497 18.854 12.497 30.17c0 11.316-4.497 22.168-12.497 30.17s-18.854 12.497-30.17 12.497h-408.32c-29.387-0.112-57.538-11.836-78.318-32.616s-32.503-48.931-32.616-78.318v-546.133c0.112-29.389 11.836-57.536 32.616-78.319 20.78-20.779 48.931-32.503 78.318-32.614h546.133c29.389 0.111 57.536 11.836 78.319 32.614 20.779 20.783 32.503 48.93 32.614 78.319v237.653c0 11.315-4.497 22.17-12.497 30.17s-18.854 12.497-30.17 12.497zM457.387 490.667c-8.009 7.202-18.441 11.106-29.21 10.935-10.766-0.171-21.070-4.403-28.844-11.857-7.774-7.45-12.444-17.562-13.073-28.314-0.628-10.748 2.831-21.338 9.685-29.645l94.722-99.413c3.964-4.16 8.73-7.475 14.007-9.749s10.965-3.456 16.713-3.477c5.713-0.034 11.379 1.084 16.657 3.281s10.061 5.436 14.063 9.519l289.28 298.667c3.921 4.034 7.010 8.801 9.088 14.030 2.082 5.228 3.11 10.814 3.029 16.44-0.077 5.626-1.263 11.181-3.49 16.349s-5.449 9.846-9.481 13.768c-4.036 3.922-8.802 7.011-14.033 9.091-5.227 2.080-10.812 3.11-16.439 3.030-5.623-0.079-11.179-1.266-16.35-3.492-5.167-2.226-9.843-5.449-13.764-9.483l-258.133-267.093-64.427 67.413z" />
<glyph unicode="&#xe90d;" glyph-name="circle" d="M512 874.667c-84.386 0-166.878-25.024-237.043-71.906s-124.852-113.519-157.145-191.482c-32.294-77.962-40.743-163.752-24.28-246.516s57.099-158.788 116.77-218.462c59.67-59.669 135.695-100.305 218.46-116.77 82.765-16.461 168.555-8.013 246.515 24.282 77.965 32.294 144.602 86.98 191.484 157.146s71.906 152.657 71.906 237.043c0 56.030-11.038 111.513-32.478 163.278s-52.868 98.801-92.489 138.421c-39.62 39.619-86.656 71.048-138.423 92.49-51.763 21.442-107.247 32.478-163.277 32.478v0zM512 106.667c-67.507 0-133.502 20.019-189.635 57.523-56.132 37.508-99.881 90.816-125.716 153.186s-32.594 131.004-19.424 197.214c13.17 66.213 45.679 127.033 93.416 174.769s108.556 80.245 174.769 93.416c66.21 13.17 134.844 6.411 197.214-19.424s115.678-69.584 153.186-125.716c37.504-56.132 57.523-122.123 57.523-189.635 0-90.526-35.959-177.348-99.972-241.361-64.013-64.009-150.835-99.972-241.361-99.972v0z" />
<glyph unicode="&#xe90e;" glyph-name="circle-plus" d="M274.957 802.761c70.165 46.883 152.657 71.906 237.043 71.906 56.030 0 111.514-11.036 163.277-32.478 51.767-21.442 98.803-52.87 138.423-92.49s71.049-86.655 92.489-138.421c21.44-51.765 32.478-107.248 32.478-163.278 0-84.386-25.024-166.878-71.906-237.043s-113.519-124.851-191.484-157.146c-77.961-32.294-163.75-40.742-246.515-24.282-82.765 16.465-158.79 57.101-218.46 116.77-59.671 59.674-100.307 135.697-116.77 218.462s-8.014 168.555 24.28 246.516c32.294 77.964 86.98 144.599 157.145 191.482zM322.365 164.19c56.132-37.504 122.127-57.523 189.635-57.523 90.526 0 177.348 35.964 241.361 99.972 64.013 64.013 99.972 150.835 99.972 241.361 0 67.511-20.019 133.503-57.523 189.635-37.508 56.132-90.816 99.881-153.186 125.716s-131.004 32.594-197.214 19.424c-66.213-13.17-127.033-45.679-174.769-93.416s-80.245-108.556-93.416-174.769c-13.17-66.21-6.411-134.844 19.424-197.214s69.584-115.678 125.716-153.186zM554.667 490.667h85.333c11.315 0 22.17-4.497 30.17-12.497 8.004-8 12.497-18.854 12.497-30.17s-4.493-22.17-12.497-30.17c-8-8-18.854-12.497-30.17-12.497h-85.333v-85.333c0-11.315-4.493-22.17-12.497-30.17-8-8-18.854-12.497-30.17-12.497s-22.17 4.497-30.17 12.497c-8 8-12.497 18.854-12.497 30.17v85.333h-85.333c-11.316 0-22.168 4.497-30.17 12.497s-12.497 18.854-12.497 30.17c0 11.315 4.495 22.17 12.497 30.17s18.854 12.497 30.17 12.497h85.333v85.333c0 11.316 4.497 22.168 12.497 30.17s18.854 12.497 30.17 12.497c11.315 0 22.17-4.495 30.17-12.497 8.004-8.002 12.497-18.854 12.497-30.17v-85.333z" />
<glyph unicode="&#xe90f;" glyph-name="clock" d="M552.747 488.956h122.88c10.863 0 21.282-4.314 28.962-11.994 7.684-7.684 11.998-18.103 11.998-28.966s-4.314-21.278-11.998-28.962c-7.68-7.68-18.099-11.998-28.962-11.998h-163.84c-10.863 0-21.282 4.318-28.962 11.998-7.684 7.684-11.998 18.099-11.998 28.962v163.842c0 10.863 4.314 21.282 11.998 28.963 7.68 7.682 18.099 11.997 28.962 11.997s21.282-4.315 28.962-11.997c7.684-7.681 11.998-18.1 11.998-28.963v-122.882zM284.439 788.57c67.358 45.008 146.549 69.030 227.561 69.030 53.79 0 107.055-10.595 156.749-31.179s94.848-50.755 132.881-88.79c38.037-38.035 68.207-83.189 88.794-132.884 20.582-49.695 31.177-102.958 31.177-156.748 0-81.011-24.021-160.205-69.030-227.563-45.005-67.358-108.975-119.855-183.821-150.857s-157.201-39.113-236.655-23.309c-79.456 15.804-152.44 54.814-209.724 112.098s-96.294 130.266-112.099 209.719c-15.805 79.458-7.693 161.813 23.309 236.658s83.501 138.815 150.859 183.823zM329.952 175.543c53.887-36.006 117.242-55.223 182.048-55.223 86.908 0 170.253 34.526 231.706 95.974 61.453 61.453 95.974 144.798 95.974 231.706 0 64.811-19.217 128.163-55.223 182.050s-87.181 95.886-147.059 120.687c-59.874 24.801-125.76 31.29-189.325 18.647-63.562-12.644-121.949-43.852-167.776-89.679s-77.036-104.214-89.679-167.778c-12.644-63.565-6.155-129.451 18.647-189.325s66.801-111.053 120.688-147.059z" />
<glyph unicode="&#xe910;" glyph-name="close" d="M572.156 448l183.467 183.040c8.034 8.034 12.548 18.931 12.548 30.293s-4.514 22.259-12.548 30.293c-8.034 8.034-18.931 12.548-30.293 12.548s-22.259-4.514-30.293-12.548l-183.040-183.467-183.038 183.467c-8.034 8.034-18.931 12.548-30.293 12.548s-22.259-4.514-30.293-12.548c-8.034-8.035-12.548-18.931-12.548-30.293s4.514-22.259 12.548-30.293l183.465-183.040-183.465-183.040c-3.999-3.968-7.173-8.687-9.339-13.884-2.166-5.201-3.281-10.778-3.281-16.41s1.115-11.209 3.281-16.41c2.166-5.197 5.34-9.916 9.339-13.884 3.966-3.998 8.685-7.172 13.885-9.34s10.776-3.281 16.409-3.281c5.632 0 11.209 1.114 16.409 3.281s9.918 5.342 13.885 9.34l183.038 183.467 183.040-183.467c3.968-3.998 8.687-7.172 13.888-9.34 5.197-2.167 10.773-3.281 16.405-3.281 5.636 0 11.213 1.114 16.41 3.281 5.201 2.167 9.92 5.342 13.884 9.34 4.002 3.968 7.177 8.687 9.34 13.884 2.167 5.201 3.281 10.778 3.281 16.41s-1.114 11.209-3.281 16.41c-2.163 5.197-5.338 9.916-9.34 13.884l-183.467 183.040z" />
<glyph unicode="&#xe911;" glyph-name="close-filled" d="M512 874.667c-84.386 0-166.878-25.024-237.043-71.906s-124.852-113.519-157.145-191.482c-32.294-77.962-40.743-163.752-24.28-246.516s57.099-158.788 116.77-218.462c59.67-59.669 135.695-100.305 218.46-116.77 82.765-16.461 168.555-8.013 246.515 24.282 77.965 32.294 144.602 86.98 191.484 157.146s71.906 152.657 71.906 237.043c0 56.030-11.038 111.513-32.478 163.278s-52.868 98.801-92.489 138.421c-39.62 39.619-86.656 71.048-138.423 92.49-51.763 21.442-107.247 32.478-163.277 32.478v0zM627.627 392.96c3.998-3.968 7.172-8.687 9.34-13.884 2.167-5.201 3.281-10.778 3.281-16.41s-1.114-11.209-3.281-16.41c-2.167-5.197-5.342-9.916-9.34-13.884-3.968-3.998-8.687-7.172-13.884-9.34-5.201-2.167-10.778-3.281-16.41-3.281s-11.209 1.114-16.41 3.281c-5.197 2.167-9.916 5.342-13.884 9.34l-55.040 55.467-55.040-55.467c-3.968-3.998-8.687-7.172-13.884-9.34-5.201-2.167-10.778-3.281-16.41-3.281s-11.209 1.114-16.408 3.281c-5.199 2.167-9.918 5.342-13.885 9.34-3.999 3.968-7.173 8.687-9.339 13.884-2.166 5.201-3.281 10.778-3.281 16.41s1.115 11.209 3.281 16.41c2.166 5.197 5.341 9.916 9.339 13.884l55.467 55.040-55.467 55.040c-8.034 8.034-12.548 18.931-12.548 30.293s4.514 22.259 12.548 30.293c8.035 8.034 18.931 12.548 30.293 12.548s22.259-4.514 30.293-12.548l55.040-55.467 55.040 55.467c8.034 8.034 18.931 12.548 30.293 12.548s22.259-4.514 30.293-12.548c8.034-8.034 12.548-18.931 12.548-30.293s-4.514-22.259-12.548-30.293l-55.467-55.040 55.467-55.040z" />
<glyph unicode="&#xe912;" glyph-name="code" d="M368.626 736.853c-4.311 3.593-9.289 6.299-14.648 7.965s-10.994 2.258-16.583 1.743c-5.588-0.515-11.020-2.128-15.984-4.745s-9.363-6.189-12.945-10.509l-213.333-256c-6.276-7.633-9.706-17.212-9.706-27.093s3.43-19.46 9.706-27.093l206.080-256c4.016-4.949 9.090-8.939 14.849-11.669s12.057-4.139 18.432-4.117c8.074-0.026 15.99 2.236 22.828 6.528s12.319 10.436 15.804 17.719c3.485 7.283 4.832 15.407 3.885 23.424-0.948 8.021-4.151 15.603-9.238 21.875l-184.747 229.12 191.147 228.693c3.593 4.311 6.299 9.289 7.965 14.648s2.258 10.994 1.743 16.582c-0.515 5.588-2.128 11.020-4.745 15.984s-6.189 9.363-10.51 12.945zM929.263 474.88l-203.947 256c-3.52 4.383-7.872 8.027-12.809 10.722-4.932 2.696-10.351 4.389-15.94 4.984s-11.243 0.079-16.636-1.518c-5.389-1.597-10.411-4.244-14.775-7.788-4.382-3.521-8.026-7.874-10.722-12.807s-4.39-10.352-4.983-15.942c-0.593-5.591-0.077-11.244 1.519-16.634s4.241-10.412 7.787-14.776l182.187-229.12-191.147-229.12c-3.593-4.314-6.298-9.289-7.966-14.647-1.664-5.359-2.257-10.995-1.741-16.585 0.512-5.589 2.125-11.021 4.745-15.983 2.62-4.966 6.191-9.365 10.509-12.945 7.735-6.208 17.391-9.527 27.307-9.387 6.268-0.009 12.463 1.361 18.142 4.015 5.675 2.654 10.701 6.528 14.711 11.345l213.333 256c6.336 7.586 9.843 17.135 9.92 27.017s-3.277 19.486-9.493 27.17z" />
<glyph unicode="&#xe913;" glyph-name="cog" d="M367.356 21.333c-20.82 0.124-41.036 7.010-57.6 19.627l-88.32 65.707c-20.381 15.889-33.905 38.985-37.793 64.533s2.154 51.618 16.886 72.853c7.795 11.511 12.748 24.704 14.455 38.498 1.706 13.798 0.115 27.802-4.641 40.862l-2.56 6.827c-3.312 11.823-9.365 22.699-17.668 31.74-8.303 9.045-18.622 16.004-30.119 20.314h-6.827c-24.923 8.38-45.533 26.253-57.356 49.741s-13.904 50.688-5.79 75.699l34.987 110.933c3.221 12.853 9.15 24.869 17.392 35.244s18.604 18.87 30.395 24.916c10.98 5.658 22.994 9.028 35.315 9.908s24.692-0.749 36.365-4.788c12.71-4.277 26.272-5.386 39.508-3.23s25.745 7.513 36.439 15.603l5.547 4.267c9.681 7.725 17.505 17.523 22.896 28.674s8.21 23.368 8.251 35.753v10.24c-0.114 26.106 10.089 51.201 28.388 69.821s43.215 29.255 69.318 29.593h108.8c12.702-0.034 25.271-2.577 36.988-7.483 11.712-4.906 22.345-12.078 31.279-21.104 18.786-19.106 29.222-44.886 29.013-71.68v-11.947c-0.218-11.765 2.334-23.417 7.45-34.015s12.646-19.846 21.99-26.998l4.693-3.413c9.579-7.181 20.749-11.94 32.559-13.871 11.814-1.932 23.919-0.979 35.281 2.778l14.507 4.693c12.292 4.074 25.276 5.631 38.182 4.578s25.468-4.694 36.937-10.707c11.465-6.013 21.606-14.273 29.811-24.289s14.31-21.582 17.95-34.009l33.707-107.52c7.799-24.849 5.67-51.755-5.948-75.063-11.614-23.309-31.808-41.212-56.346-49.95l-8.533-2.987c-12.548-4.109-23.898-11.238-33.050-20.762s-15.825-21.146-19.43-33.852c-3.396-11.81-4.203-24.213-2.359-36.365 1.839-12.151 6.285-23.761 13.026-34.035l11.093-16.213c14.711-21.35 20.698-47.522 16.73-73.148-3.964-25.626-17.583-48.759-38.063-64.666l-85.76-66.133c-10.359-7.923-22.234-13.641-34.889-16.806-12.655-3.162-25.822-3.699-38.69-1.579-12.873 2.116-25.173 6.848-36.147 13.897-10.97 7.053-20.386 16.277-27.661 27.102l-5.12 7.253c-6.989 10.5-16.521 19.063-27.712 24.883s-23.676 8.708-36.288 8.397c-12.032-0.311-23.825-3.447-34.423-9.152-10.598-5.709-19.703-13.828-26.59-23.701l-9.813-14.080c-7.275-10.901-16.708-20.198-27.716-27.315-11.007-7.121-23.355-11.908-36.283-14.071-5.533-0.542-11.107-0.542-16.64 0zM187.729 464.213c24.093-8.593 45.834-22.72 63.471-41.246s30.679-40.934 38.076-65.421v-5.12c9.213-25.455 12.239-52.74 8.826-79.595-3.413-26.859-13.165-52.514-28.453-74.859-2.698-2.982-4.192-6.861-4.192-10.88s1.494-7.898 4.192-10.88l91.733-69.547c1.197-0.939 2.581-1.613 4.060-1.975 1.478-0.358 3.017-0.401 4.512-0.115 1.495 0.282 2.913 0.879 4.157 1.758 1.245 0.875 2.287 2.005 3.057 3.319l9.813 14.080c14.801 21.385 34.566 38.865 57.604 50.935 23.036 12.075 48.657 18.381 74.662 18.381 26.010 0 51.627-6.306 74.667-18.381 23.036-12.070 42.799-29.551 57.6-50.935l5.12-7.68c1.835-2.603 4.574-4.429 7.68-5.12 1.425-0.209 2.88-0.128 4.271 0.239 1.395 0.363 2.701 1.011 3.836 1.894l87.893 66.56c3.076 2.441 5.103 5.969 5.658 9.86 0.555 3.887-0.401 7.842-2.671 11.046l-11.093 16.213c-14.455 21.077-23.991 45.133-27.904 70.387-3.913 25.259-2.108 51.068 5.291 75.533 7.501 25.711 21.065 49.246 39.552 68.625s41.357 34.035 66.688 42.735l8.533 2.987c3.558 1.425 6.404 4.198 7.923 7.714 1.519 3.52 1.587 7.492 0.183 11.059l-33.28 106.24c-0.798 1.859-1.967 3.536-3.435 4.93s-3.2 2.474-5.099 3.177c-1.254 0.637-2.645 0.969-4.053 0.969s-2.795-0.332-4.053-0.969l-14.507-4.693c-24.538-8.099-50.679-10.117-76.173-5.881-25.489 4.236-49.57 14.6-70.174 30.201l-1.707 3.84c-19.767 14.971-35.797 34.321-46.827 56.529s-16.764 46.673-16.747 71.471v13.227c0.077 4.112-1.455 8.093-4.267 11.093-2.453 2.218-5.649 3.436-8.96 3.413h-108.373c-1.737-0.108-3.439-0.559-5.001-1.326-1.566-0.767-2.961-1.836-4.109-3.144-1.152-1.308-2.031-2.831-2.59-4.48s-0.789-3.392-0.674-5.13v-10.667c0.004-25.474-5.841-50.608-17.087-73.466-11.244-22.858-27.586-42.829-47.766-58.374l-5.547-4.267c-21.772-16.576-47.286-27.543-74.295-31.933s-54.684-2.068-80.585 6.759c-1.938 0.65-4.035 0.65-5.973 0-2.408-1.463-4.221-3.729-5.12-6.4l-35.413-111.36c-1.234-3.793-0.945-7.919 0.807-11.499 1.752-3.584 4.829-6.345 8.58-7.701l7.68-2.133zM512 298.667c-29.538 0-58.411 8.759-82.965 25.169-24.559 16.405-43.699 39.731-55.002 67.017-11.303 27.29-14.26 57.314-8.498 86.281 5.762 28.971 19.985 55.578 40.87 76.462s47.492 35.107 76.463 40.87c28.966 5.762 58.991 2.805 86.281-8.498 27.285-11.303 50.607-30.443 67.017-55.001 16.41-24.559 25.169-53.431 25.169-82.965 0-39.607-15.735-77.589-43.742-105.596-28.002-28.006-65.988-43.738-105.591-43.738zM512 512c-12.659 0-25.033-3.755-35.558-10.786s-18.726-17.028-23.573-28.723c-4.843-11.695-6.11-24.563-3.639-36.975 2.47-12.416 8.563-23.821 17.515-32.772 8.951-8.947 20.356-15.044 32.768-17.515 12.416-2.47 25.284-1.203 36.979 3.644 11.695 4.843 21.692 13.047 28.723 23.569 7.031 10.526 10.786 22.899 10.786 35.558 0 16.973-6.746 33.254-18.748 45.257s-28.279 18.743-45.252 18.743z" />
<glyph unicode="&#xe914;" glyph-name="coupon" d="M798.72 228.574h-573.439c-22.621 0-40.96 19.648-40.96 43.883v43.887c67.865 0 122.88 58.944 122.88 131.657s-55.015 131.658-122.88 131.658v43.886c0 24.237 18.338 43.886 40.96 43.886h573.439c22.622 0 40.96-19.648 40.96-43.886v-351.087c0-24.235-18.338-43.883-40.96-43.883zM102.401 272.457c0-72.713 55.015-131.657 122.88-131.657h573.439c67.866 0 122.88 58.944 122.88 131.657v351.087c0 72.712-55.014 131.657-122.88 131.657h-573.439c-67.865 0-122.88-58.945-122.88-131.657v-131.657h81.92c22.622 0 40.96-19.648 40.96-43.887s-18.338-43.887-40.96-43.887h-81.92v-131.657zM640 345.6c0 28.279 22.925 51.2 51.2 51.2 28.279 0 51.2-22.921 51.2-51.2 0-28.275-22.921-51.2-51.2-51.2-28.275 0-51.2 22.925-51.2 51.2zM435.2 550.4c0 28.277 22.925 51.2 51.2 51.2 28.279 0 51.2-22.923 51.2-51.2s-22.921-51.2-51.2-51.2c-28.275 0-51.2 22.925-51.2 51.2zM440.862 302.746c-11.123 11.123-11.123 29.15 0 40.273l248.303 248.303c11.119 11.12 29.15 11.12 40.269 0 11.123-11.12 11.123-29.149 0-40.27l-248.303-248.306c-11.119-11.119-29.15-11.119-40.269 0z" />
<glyph unicode="&#xe915;" glyph-name="customers" d="M384.068 490.667c33.754 0 66.752 10.010 94.819 28.762 28.066 18.754 49.941 45.408 62.857 76.593 12.919 31.185 16.299 65.501 9.711 98.607-6.583 33.106-22.839 63.516-46.707 87.384s-54.276 40.122-87.383 46.708c-33.106 6.585-67.421 3.206-98.607-9.712s-57.84-34.792-76.593-62.858c-18.753-28.066-28.762-61.063-28.762-94.817 0-45.264 17.981-88.673 49.987-120.68s75.416-49.987 120.68-49.987zM384.068 746.667c16.877 0 33.376-5.005 47.407-14.381 14.033-9.377 24.973-22.704 31.428-38.296 6.46-15.593 8.149-32.751 4.86-49.303-3.294-16.553-11.422-31.758-23.356-43.692s-27.139-20.061-43.692-23.354c-16.553-3.293-33.711-1.603-49.303 4.856s-28.92 17.396-38.296 31.429c-9.376 14.033-14.381 30.531-14.381 47.409 0 22.632 8.99 44.337 24.993 60.34s37.708 24.994 60.34 24.994zM725.402 405.333c25.314 0 50.065 7.505 71.113 21.572 21.047 14.063 37.457 34.057 47.142 57.442 9.69 23.39 12.224 49.127 7.283 73.957-4.937 24.829-17.126 47.637-35.029 65.538-17.899 17.901-40.708 30.092-65.536 35.031-24.832 4.939-50.569 2.404-73.958-7.284-23.386-9.688-43.379-26.094-57.442-47.143-14.067-21.050-21.572-45.797-21.572-71.113 0-33.95 13.487-66.505 37.491-90.509s56.559-37.491 90.509-37.491zM725.402 576c8.439 0 16.687-2.502 23.706-7.191 7.014-4.689 12.484-11.352 15.714-19.148s4.075-16.374 2.428-24.652c-1.647-8.277-5.713-15.881-11.678-21.845-5.969-5.969-13.568-10.031-21.845-11.678s-16.858-0.802-24.653 2.428c-7.795 3.23-14.46 8.7-19.149 15.714-4.689 7.019-7.189 15.266-7.189 23.706 0 11.315 4.493 22.168 12.497 30.169 8 8.002 18.854 12.497 30.17 12.497zM725.402 362.667c-47.283-0.051-93.21-15.812-130.56-44.8-41.792 41.626-94.976 69.948-152.841 81.391s-117.824 5.491-172.313-17.097c-54.489-22.592-101.069-60.809-133.866-109.837s-50.341-106.671-50.421-165.658c0-11.315 4.495-22.17 12.497-30.17s18.854-12.497 30.17-12.497c11.316 0 22.168 4.497 30.17 12.497s12.497 18.854 12.497 30.17c0 56.58 22.476 110.844 62.484 150.848 40.008 40.009 94.27 62.485 150.85 62.485s110.84-22.477 150.848-62.485c40.009-40.004 62.485-94.268 62.485-150.848 0-11.315 4.493-22.17 12.497-30.17 8-8 18.854-12.497 30.17-12.497s22.17 4.497 30.17 12.497c8 8 12.497 18.854 12.497 30.17 0.102 49.988-12.527 99.179-36.693 142.933 18.854 14.899 41.523 24.192 65.412 26.807 23.889 2.62 48.034-1.54 69.666-12.002 21.636-10.462 39.889-26.803 52.672-47.151 12.783-20.352 19.58-43.887 19.61-67.921 0-11.315 4.493-22.17 12.497-30.17 8-8 18.854-12.497 30.17-12.497s22.17 4.497 30.17 12.497c8 8 12.497 18.854 12.497 30.17 0 56.58-22.477 110.844-62.485 150.848-40.009 40.009-94.268 62.485-150.848 62.485z" />
<glyph unicode="&#xe916;" glyph-name="customize" d="M833.707 743.254c-42.778 42.478-93.611 75.983-149.513 98.55-55.906 22.566-115.75 33.74-176.034 32.864-113.157 0.283-221.794-44.398-302.010-124.214s-125.439-188.227-125.722-301.387c-0.283-113.161 44.398-221.794 124.214-302.012 79.815-80.213 188.227-125.44 301.385-125.722 24.384-0.414 48.218 7.279 67.755 21.875s33.677 35.264 40.192 58.765c4.156 16.973 4.113 34.701-0.124 51.648-4.237 16.951-12.54 32.614-24.196 45.632-2.692 3.068-4.45 6.844-5.065 10.876-0.614 4.036-0.055 8.162 1.609 11.891 1.66 3.729 4.356 6.903 7.77 9.143 3.409 2.24 7.394 3.456 11.473 3.503h70.4c66.261-0.311 130.185 24.461 178.935 69.333s78.724 106.53 83.891 172.587c1.587 49.254-6.903 98.313-24.951 144.169s-45.274 87.54-80.009 122.499zM677.547 320h-70.4c-20.557 0.115-40.708-5.734-58.010-16.845s-31.006-27.004-39.45-45.747c-8.448-18.743-11.273-39.539-8.137-59.857 3.136-20.322 12.105-39.292 25.809-54.618 2.671-2.692 4.557-6.059 5.457-9.745 0.905-3.682 0.789-7.539-0.337-11.162-2.133-8.96-11.947-14.507-25.173-15.36-48.452 0.623-96.222 11.554-140.125 32.068s-82.935 50.142-114.498 86.912c-31.564 36.77-54.936 79.842-68.562 126.345-13.626 46.507-17.194 95.377-10.467 143.369 12.167 80.643 52.461 154.384 113.755 208.182s139.64 84.187 221.176 85.792h3.413c48.252 0.631 96.137-8.406 140.838-26.579s85.308-45.115 119.428-79.235c26.624-26.641 47.543-58.426 61.483-93.417 13.935-34.99 20.599-72.455 19.584-110.104-4.416-43.652-24.806-84.13-57.254-113.66-32.444-29.534-74.658-46.037-118.532-46.34zM512 618.667c35.349 0 64 28.654 64 64s-28.651 64-64 64c-35.345 0-64-28.654-64-64s28.655-64 64-64zM650.667 652.8c-10.957-6.33-19.793-15.767-25.387-27.117-5.598-11.35-7.701-24.105-6.050-36.652s6.985-24.322 15.326-33.839c8.341-9.516 19.319-16.345 31.543-19.625 12.22-3.28 25.139-2.862 37.129 1.201 11.985 4.062 22.494 11.587 30.204 21.622s12.271 22.131 13.111 34.758c0.836 12.627-2.091 25.219-8.41 36.184-4.198 7.287-9.792 13.676-16.461 18.8s-14.285 8.883-22.409 11.063c-8.124 2.179-16.593 2.736-24.934 1.639-8.337-1.097-16.38-3.828-23.663-8.035zM373.335 652.8c-10.965 6.318-23.557 9.243-36.184 8.406s-24.723-5.399-34.758-13.108c-10.036-7.71-17.56-18.222-21.622-30.207s-4.48-24.906-1.201-37.129c3.279-12.223 10.108-23.199 19.625-31.541s21.292-13.676 33.838-15.327c12.547-1.653 25.302 0.454 36.652 6.050s20.787 14.432 27.117 25.39c4.207 7.283 6.937 15.323 8.035 23.662s0.54 16.812-1.639 24.935c-2.179 8.123-5.938 15.737-11.063 22.407s-11.512 12.264-18.8 16.463zM262.828 479.573c-10.497-7.087-18.656-17.131-23.441-28.86-4.786-11.725-5.984-24.61-3.444-37.018s8.706-23.787 17.716-32.687c9.010-8.905 20.459-14.933 32.897-17.323 12.438-2.394 25.306-1.041 36.976 3.883 11.669 4.928 21.614 13.205 28.576 23.787s10.627 22.989 10.532 35.657c-0.095 12.668-3.946 25.020-11.066 35.494-4.677 6.985-10.692 12.971-17.698 17.613s-14.862 7.851-23.115 9.438c-8.253 1.587-16.739 1.519-24.966-0.192-8.228-1.715-16.034-5.043-22.967-9.792z" />
<glyph unicode="&#xe917;" glyph-name="danger-filled" d="M512 21.333c84.386 0 166.878 25.024 237.043 71.906s124.851 113.519 157.146 191.484c32.294 77.961 40.742 163.75 24.277 246.515-16.461 82.765-57.097 158.79-116.766 218.461-59.674 59.67-135.697 100.306-218.462 116.769s-168.555 8.014-246.517-24.279c-77.963-32.294-144.599-86.98-191.482-157.146s-71.906-152.657-71.906-237.043c0-56.030 11.036-111.514 32.478-163.277 21.442-51.767 52.87-98.803 92.49-138.423s86.655-71.044 138.42-92.489c51.766-21.44 107.249-32.478 163.279-32.478v0zM469.333 618.667c0 11.316 4.497 22.168 12.497 30.17s18.854 12.497 30.17 12.497c11.315 0 22.17-4.495 30.17-12.497s12.497-18.854 12.497-30.17v-213.333c0-11.315-4.497-22.17-12.497-30.17s-18.854-12.497-30.17-12.497c-11.315 0-22.17 4.497-30.17 12.497s-12.497 18.854-12.497 30.17v213.333zM512 320c8.439 0 16.687-2.5 23.706-7.189 7.014-4.689 12.484-11.354 15.714-19.149s4.075-16.375 2.428-24.653c-1.647-8.277-5.709-15.881-11.678-21.845-5.969-5.969-13.568-10.031-21.845-11.678s-16.858-0.802-24.653 2.428c-7.795 3.23-14.46 8.7-19.149 15.714-4.689 7.019-7.189 15.266-7.189 23.706 0 11.315 4.497 22.17 12.497 30.17s18.854 12.497 30.17 12.497z" />
<glyph unicode="&#xe918;" glyph-name="date" d="M750.933 775.68h-39.825v40.96c0 24.576-15.927 40.96-39.821 40.96s-39.821-16.384-39.821-40.96v-40.96h-238.934v40.96c0 24.576-15.929 40.96-39.823 40.96s-39.822-16.384-39.822-40.96v-40.96h-39.822c-67.698 0-119.467-53.248-119.467-122.88v-491.52c0-69.632 51.769-122.88 119.467-122.88h477.868c67.695 0 119.467 53.248 119.467 122.88v491.52c0 69.632-51.772 122.88-119.467 122.88zM790.754 554.496v-393.216c0-24.576-15.927-40.96-39.821-40.96h-477.868c-23.893 0-39.823 16.384-39.823 40.96v491.52c0 24.576 15.929 40.96 39.823 40.96h39.822v-40.96c0-24.576 15.929-40.96 39.822-40.96s39.823 16.384 39.823 40.96v40.96h238.934v-40.96c0-24.576 15.927-40.96 39.821-40.96s39.821 16.384 39.821 40.96v40.96h39.825c23.893 0 39.821-16.384 39.821-40.96v-98.304z" />
<glyph unicode="&#xe919;" glyph-name="date-and-time" d="M725.333 789.333h42.667c72.533 0 128-55.467 128-128v-512c0-72.533-55.467-128-128-128h-512c-72.533 0-128 55.467-128 128v512c0 72.533 55.467 128 128 128h42.667v42.667c0 25.6 17.067 42.667 42.667 42.667s42.667-17.067 42.667-42.667v-42.667h256v42.667c0 25.6 17.067 42.667 42.667 42.667s42.667-17.067 42.667-42.667v-42.667zM810.667 490.667v170.667c0 25.6-17.067 42.667-42.667 42.667h-42.667v-42.667c0-25.6-17.067-42.667-42.667-42.667s-42.667 17.067-42.667 42.667v42.667h-256v-42.667c0-25.6-17.067-42.667-42.667-42.667s-42.667 17.067-42.667 42.667v42.667h-42.667c-25.6 0-42.667-17.067-42.667-42.667v-512c0-25.6 17.067-42.667 42.667-42.667h512c25.6 0 42.667 17.067 42.667 42.667v341.333zM682.667 433.779h-128v127.998c0 11.316-4.497 22.169-12.497 30.17s-18.854 12.497-30.17 12.497c-11.315 0-22.17-4.495-30.17-12.497s-12.497-18.854-12.497-30.17v-170.665c0-11.319 4.497-22.17 12.497-30.174 8-8 18.854-12.493 30.17-12.493h170.667c11.315 0 22.17 4.493 30.17 12.493 8.004 8.004 12.497 18.854 12.497 30.174 0 11.315-4.493 22.165-12.497 30.17-8 8-18.854 12.497-30.17 12.497z" />
<glyph unicode="&#xe91a;" glyph-name="download" d="M810.667 192h-597.333c-23.564 0-42.667-19.102-42.667-42.667s19.103-42.667 42.667-42.667h597.333c23.565 0 42.667 19.102 42.667 42.667s-19.102 42.667-42.667 42.667zM170.667 234.667v-85.333c0-23.565 19.103-42.667 42.667-42.667s42.667 19.102 42.667 42.667v85.333c0 23.565-19.103 42.667-42.667 42.667s-42.667-19.102-42.667-42.667zM768 234.667v-85.333c0-23.565 19.102-42.667 42.667-42.667s42.667 19.102 42.667 42.667v85.333c0 23.565-19.102 42.667-42.667 42.667s-42.667-19.102-42.667-42.667zM512 320c-8.845-0.068-17.493 2.615-24.747 7.68l-170.667 120.32c-9.199 6.524-15.439 16.427-17.358 27.541-1.919 11.11 0.64 22.532 7.118 31.765 3.234 4.617 7.349 8.542 12.109 11.558s10.070 5.056 15.623 6.012c5.554 0.951 11.241 0.794 16.733-0.465s10.682-3.593 15.267-6.865l145.92-101.973 145.067 109.227c9.054 6.788 20.433 9.705 31.633 8.102 11.204-1.6 21.312-7.582 28.1-16.636s9.707-20.433 8.107-31.633c-1.604-11.204-7.586-21.312-16.64-28.1l-170.667-128c-7.386-5.538-16.367-8.533-25.6-8.533zM512 405.333c-11.315 0-22.17 4.497-30.17 12.497s-12.497 18.854-12.497 30.17v341.333c0 11.316 4.497 22.168 12.497 30.17s18.854 12.497 30.17 12.497c11.315 0 22.17-4.495 30.17-12.497s12.497-18.854 12.497-30.17v-341.333c0-11.315-4.497-22.17-12.497-30.17s-18.854-12.497-30.17-12.497z" />
<glyph unicode="&#xe91b;" glyph-name="drag" d="M469.333 661.333c0-35.346-28.655-64-64-64-35.346 0-64 28.654-64 64s28.654 64 64 64c35.345 0 64-28.654 64-64zM469.333 448c0-35.345-28.655-64-64-64-35.346 0-64 28.655-64 64s28.654 64 64 64c35.345 0 64-28.655 64-64zM469.333 234.667c0-35.345-28.655-64-64-64-35.346 0-64 28.655-64 64s28.654 64 64 64c35.345 0 64-28.655 64-64zM682.667 661.333c0-35.346-28.655-64-64-64s-64 28.654-64 64c0 35.346 28.655 64 64 64s64-28.654 64-64zM682.667 448c0-35.345-28.655-64-64-64s-64 28.655-64 64c0 35.345 28.655 64 64 64s64-28.655 64-64zM682.667 234.667c0-35.345-28.655-64-64-64s-64 28.655-64 64c0 35.345 28.655 64 64 64s64-28.655 64-64z" />
<glyph unicode="&#xe91c;" glyph-name="edit" d="M827.738 646.828l-116.907 116.907c-15.262 14.332-35.255 22.555-56.179 23.106-20.928 0.55-41.327-6.61-57.314-20.119l-384.002-384.001c-13.791-13.905-22.378-32.137-24.32-51.627l-18.347-177.92c-0.575-6.246 0.236-12.548 2.375-18.449 2.139-5.897 5.553-11.255 9.999-15.684 3.987-3.955 8.715-7.083 13.914-9.207 5.198-2.121 10.765-3.196 16.38-3.166h3.84l177.92 16.213c19.49 1.941 37.719 10.53 51.629 24.32l384 384c14.903 15.746 22.959 36.758 22.396 58.431-0.559 21.674-9.685 42.241-25.382 57.196v0zM387.415 208.213l-128-11.947 11.52 128 241.069 238.081 115.2-115.201-239.789-238.933zM682.671 504.32l-114.347 114.348 83.2 85.333 116.48-116.48-85.333-83.201z" />
<glyph unicode="&#xe91d;" glyph-name="email" d="M810.667 789.333h-597.333c-33.948 0-66.505-13.486-90.51-37.49s-37.49-56.562-37.49-90.51v-426.667c0-33.946 13.486-66.505 37.49-90.509s56.562-37.491 90.51-37.491h597.333c33.946 0 66.505 13.487 90.509 37.491s37.491 56.563 37.491 90.509v426.667c0 33.948-13.487 66.505-37.491 90.51s-56.563 37.49-90.509 37.49v0zM782.080 704l-270.080-202.667-270.080 202.667h540.16zM810.667 192h-597.333c-11.316 0-22.168 4.497-30.17 12.497s-12.497 18.854-12.497 30.17v416l315.733-236.8c7.386-5.538 16.367-8.533 25.6-8.533s18.214 2.995 25.6 8.533l315.733 236.8v-416c0-11.315-4.497-22.17-12.497-30.17s-18.854-12.497-30.17-12.497z" />
<glyph unicode="&#xe91e;" glyph-name="employee" d="M1024 128c0-21.333-17.067-42.667-42.667-42.667h-938.667c-21.333 0-42.667 17.067-42.667 42.667 0 21.333 17.067 42.667 42.667 42.667h721.067l136.533 311.467c0 4.267 0 8.533 0 8.533-4.267 4.267-4.267 4.267-8.533 4.267h-354.133c-4.267 0-8.533-4.267-8.533-4.267l-115.2-260.267-4.267-4.267h-157.867c-21.333 0-42.667 17.067-42.667 42.667 0 21.333 17.067 42.667 42.667 42.667h98.133l38.4 85.333c-29.867 25.6-68.267 42.667-106.667 42.667-89.6 0-162.133-72.533-162.133-162.133 0-21.333-17.067-38.4-38.4-38.4s-38.4 17.067-38.4 38.4c0 132.267 106.667 243.2 238.933 243.2 51.2 0 98.133-17.067 140.8-46.933l25.6 59.733c12.8 34.133 46.933 55.467 85.333 55.467h354.133c29.867 0 59.733-17.067 76.8-42.667s21.333-59.733 8.533-89.6l-119.467-285.867h128c25.6 0 42.667-17.067 42.667-42.667zM145.067 704c0 76.8 64 140.8 140.8 140.8s140.8-64 140.8-140.8c0-76.8-64-140.8-140.8-140.8s-140.8 64-140.8 140.8zM226.133 704c0-34.133 25.6-59.733 59.733-59.733s59.733 25.6 59.733 59.733c0 34.133-25.6 59.733-59.733 59.733s-59.733-25.6-59.733-59.733z" />
<glyph unicode="&#xe91f;" glyph-name="external-link-outline" d="M823.164 478.17c8 8 18.854 12.497 30.17 12.497s22.17-4.497 30.17-12.497c8-8 12.497-18.854 12.497-30.17v-256c0-33.946-13.487-66.505-37.491-90.509s-56.563-37.491-90.509-37.491h-512c-33.948 0-66.505 13.487-90.51 37.491s-37.49 56.563-37.49 90.509v512c0 33.948 13.486 66.505 37.49 90.51s56.562 37.49 90.51 37.49h256c11.315 0 22.17-4.495 30.17-12.497s12.497-18.854 12.497-30.17c0-11.316-4.497-22.168-12.497-30.17s-18.854-12.497-30.17-12.497h-256c-11.316 0-22.168-4.495-30.17-12.497s-12.497-18.854-12.497-30.17v-512c0-11.315 4.495-22.17 12.497-30.17s18.854-12.497 30.17-12.497h512c11.315 0 22.17 4.497 30.17 12.497s12.497 18.854 12.497 30.17v256c0 11.315 4.497 22.17 12.497 30.17zM750.076 746.667h-67.413c-11.315 0-22.165 4.495-30.17 12.497-8 8.002-12.497 18.854-12.497 30.17s4.497 22.168 12.497 30.17c8.004 8.001 18.854 12.497 30.17 12.497h170.667c11.319 0 22.17-4.495 30.17-12.497 8.004-8.002 12.497-18.854 12.497-30.17v-170.667c0-11.316-4.493-22.168-12.497-30.17-8-8.001-18.85-12.497-30.17-12.497-11.315 0-22.165 4.495-30.17 12.497-8 8.002-12.497 18.854-12.497 30.17v67.413l-268.373-267.947c-3.964-3.998-8.683-7.172-13.884-9.34-5.197-2.167-10.773-3.281-16.41-3.281-5.632 0-11.209 1.114-16.405 3.281-5.201 2.167-9.92 5.342-13.888 9.34-3.998 3.968-7.172 8.687-9.34 13.884-2.163 5.201-3.281 10.778-3.281 16.41s1.118 11.209 3.281 16.41c2.167 5.197 5.342 9.916 9.34 13.884l268.373 267.947z" />
<glyph unicode="&#xe920;" glyph-name="copy" d="M384 320h-142.080c-30.179 0.111-59.089 12.151-80.429 33.489-21.34 21.342-33.379 50.253-33.491 80.431v284.16c0.112 30.179 12.151 59.089 33.491 80.429s50.25 33.379 80.429 33.491h284.16c30.178-0.112 59.089-12.151 80.431-33.491 21.338-21.34 33.378-50.25 33.489-80.429v-142.080h128c33.946 0 66.505-13.486 90.509-37.49s37.491-56.564 37.491-90.51v-256c0-33.946-13.487-66.505-37.491-90.509s-56.563-37.491-90.509-37.491h-256c-33.946 0-66.505 13.487-90.51 37.491s-37.49 56.563-37.49 90.509v128zM384 405.333v42.667c0 33.946 13.486 66.505 37.49 90.51s56.564 37.49 90.51 37.49h42.667v142.080c0 7.582-3.012 14.853-8.371 20.214-5.363 5.361-12.634 8.373-20.215 8.373h-284.16c-7.582 0-14.853-3.012-20.214-8.373s-8.373-12.632-8.373-20.214v-284.16c0-7.582 3.012-14.852 8.373-20.215 5.361-5.359 12.632-8.371 20.214-8.371h142.080zM481.83 478.17c-8-8-12.497-18.854-12.497-30.17v-256c0-11.315 4.497-22.17 12.497-30.17s18.854-12.497 30.17-12.497h256c11.315 0 22.17 4.497 30.17 12.497s12.497 18.854 12.497 30.17v256c0 11.315-4.497 22.17-12.497 30.17s-18.854 12.497-30.17 12.497h-256c-11.315 0-22.17-4.497-30.17-12.497z" />
<glyph unicode="&#xe921;" glyph-name="extras" d="M768 832.003h-512c-33.948 0-66.505-13.486-90.51-37.49s-37.49-56.562-37.49-90.51v-511.998c0-33.95 13.486-66.505 37.49-90.513 24.005-24.004 56.562-37.487 90.51-37.487h512c33.95 0 66.505 13.483 90.509 37.487 24.004 24.009 37.491 56.563 37.491 90.513v511.998c0 33.948-13.487 66.505-37.491 90.51s-56.559 37.49-90.509 37.49zM810.667 192.004c0-11.319-4.497-22.17-12.497-30.17-8-8.004-18.854-12.497-30.17-12.497h-512c-11.316 0-22.168 4.493-30.17 12.497-8.001 8-12.497 18.85-12.497 30.17v511.998c0 11.316 4.495 22.168 12.497 30.17s18.854 12.497 30.17 12.497h512c11.315 0 22.17-4.495 30.17-12.497s12.497-18.854 12.497-30.17v-511.998zM639.936 490.671h-85.333v85.334c0 11.316-4.497 22.168-12.497 30.17-8.004 8.002-18.854 12.497-30.17 12.497-11.319 0-22.17-4.495-30.17-12.497-8.004-8.001-12.497-18.854-12.497-30.17v-85.334h-85.335c-11.316 0-22.168-4.497-30.17-12.497s-12.497-18.854-12.497-30.17c0-11.315 4.495-22.17 12.497-30.17s18.854-12.497 30.17-12.497h85.335v-85.333c0-11.315 4.493-22.17 12.497-30.17 8-8 18.85-12.497 30.17-12.497 11.315 0 22.165 4.497 30.17 12.497 8 8 12.497 18.854 12.497 30.17v85.333h85.333c11.315 0 22.165 4.497 30.17 12.497 8 8 12.497 18.854 12.497 30.17s-4.497 22.17-12.497 30.17c-8.004 8-18.854 12.497-30.17 12.497z" />
<glyph unicode="&#xe922;" glyph-name="eye" d="M933.116 469.333c-27.307 47.36-177.493 285.014-432.64 277.334-235.945-5.973-372.478-213.333-409.598-277.334-3.745-6.485-5.716-13.845-5.716-21.333s1.972-14.848 5.716-21.333c26.88-46.507 170.667-277.333 421.971-277.333h10.667c235.947 5.973 372.907 213.333 409.6 277.333 3.746 6.485 5.717 13.845 5.717 21.333s-1.971 14.848-5.717 21.333zM521.382 234.667c-183.891-4.267-303.785 153.173-341.331 213.333 42.667 68.693 154.027 209.067 324.691 213.334 183.040 4.693 303.36-153.174 341.333-213.334-43.947-68.693-154.027-209.067-324.693-213.333zM511.996 597.334c-29.534 0-58.406-8.759-82.961-25.167-24.56-16.409-43.7-39.733-55.003-67.019s-14.26-57.314-8.498-86.281c5.762-28.966 19.985-55.578 40.869-76.463 20.887-20.885 47.494-35.106 76.46-40.866 28.971-5.764 58.995-2.807 86.281 8.495 27.29 11.302 50.611 30.443 67.021 55.002s25.165 53.431 25.165 82.965c0 39.607-15.731 77.589-43.738 105.595s-65.988 43.739-105.596 43.739zM511.996 384c-12.655 0-25.028 3.755-35.554 10.786s-18.726 17.028-23.573 28.723c-4.843 11.695-6.11 24.563-3.639 36.975 2.466 12.416 8.563 23.821 17.515 32.772 8.951 8.947 20.352 15.044 32.768 17.515s25.284 1.203 36.979-3.644c11.695-4.843 21.687-13.047 28.723-23.569 7.031-10.526 10.782-22.899 10.782-35.558 0-16.973-6.741-33.25-18.743-45.257-12.002-12.002-28.279-18.743-45.257-18.743z" />
<glyph unicode="&#xe923;" glyph-name="eye-crossed" d="M200.957 819.627c-3.978 3.978-8.701 7.134-13.899 9.287s-10.769 3.261-16.395 3.261c-5.626 0-11.197-1.108-16.395-3.261s-9.92-5.309-13.899-9.287c-8.034-8.035-12.548-18.931-12.548-30.293s4.514-22.259 12.548-30.293l240.213-240.213c-15.197-28.271-20.881-60.689-16.209-92.446 4.672-31.753 19.452-61.158 42.148-83.857 22.695-22.694 52.101-37.474 83.858-42.146s64.171 1.011 92.442 16.209l240.213-240.213c3.968-3.998 8.687-7.172 13.888-9.34 5.197-2.167 10.773-3.281 16.405-3.281 5.636 0 11.213 1.114 16.41 3.281 5.201 2.167 9.92 5.342 13.884 9.34 4.002 3.968 7.177 8.687 9.34 13.884 2.167 5.201 3.281 10.778 3.281 16.41s-1.114 11.209-3.281 16.41c-2.163 5.197-5.338 9.916-9.34 13.884l-682.665 682.667zM511.996 384c-16.973 0-33.25 6.741-45.252 18.743s-18.748 28.284-18.748 45.257v2.987l66.56-66.56-2.56-0.427zM521.382 234.667c-183.465-4.267-303.785 153.173-341.331 213.333 26.729 42.637 58.853 81.643 95.573 116.054l-62.293 60.16c-48.157-45.375-89.412-97.553-122.453-154.88-3.745-6.485-5.716-13.845-5.716-21.333s1.972-14.848 5.716-21.333c26.88-46.507 170.667-277.333 421.971-277.333h10.667c47.258 1.404 93.901 11.076 137.813 28.587l-67.413 67.413c-23.706-6.238-48.034-9.813-72.533-10.667zM933.12 469.333c-27.307 47.36-177.92 285.014-432.64 277.334-47.253-1.402-93.899-11.077-137.813-28.587l67.413-67.413c23.706 6.237 48.034 9.814 72.533 10.667 183.040 4.693 303.36-153.174 341.333-213.334-27.388-42.765-60.237-81.779-97.707-116.053l64.427-60.16c48.759 45.257 90.598 97.442 124.16 154.88 3.49 6.635 5.167 14.071 4.868 21.564-0.299 7.488-2.569 14.767-6.575 21.103v0z" />
<glyph unicode="&#xe924;" glyph-name="filters" d="M640 149.333c-0.073 26.406-8.311 52.147-23.59 73.69-15.279 21.538-36.843 37.828-61.743 46.63v562.347c0 11.316-4.493 22.168-12.497 30.17-8 8.001-18.85 12.497-30.17 12.497-11.315 0-22.165-4.495-30.17-12.497-8-8.002-12.497-18.854-12.497-30.17v-562.347c-22.135-7.829-41.698-21.594-56.535-39.791-14.839-18.202-24.385-40.132-27.595-63.394s0.041-46.955 9.397-68.493c9.356-21.538 24.456-40.085 43.646-53.615 19.196-13.534 41.737-21.521 65.165-23.1 23.433-1.574 46.839 3.324 67.674 14.165 20.83 10.837 38.276 27.196 50.432 47.287s18.551 43.136 18.483 66.62zM469.333 149.333c0 8.439 2.505 16.687 7.194 23.706 4.685 7.014 11.349 12.484 19.149 15.714 7.795 3.23 16.371 4.075 24.649 2.428s15.881-5.709 21.845-11.678c5.969-5.965 10.031-13.568 11.678-21.845s0.802-16.858-2.428-24.653c-3.23-7.795-8.695-14.46-15.714-19.149-7.014-4.689-15.266-7.189-23.706-7.189-11.315 0-22.165 4.497-30.17 12.497-8 8-12.497 18.854-12.497 30.17zM725.333 832v-50.347c-24.708-8.969-46.059-25.328-61.146-46.855s-23.181-47.177-23.181-73.465c0-26.288 8.094-51.938 23.181-73.465s36.437-37.886 61.146-46.855v-477.013c0-11.315 4.497-22.17 12.497-30.17 8.004-8 18.854-12.497 30.17-12.497 11.319 0 22.17 4.497 30.17 12.497 8.004 8 12.497 18.854 12.497 30.17v477.013c24.713 8.969 46.063 25.328 61.15 46.855s23.181 47.177 23.181 73.465c0 26.288-8.094 51.938-23.181 73.465s-36.437 37.887-61.15 46.855v50.347c0 11.316-4.493 22.168-12.497 30.17-8 8.001-18.85 12.497-30.17 12.497-11.315 0-22.165-4.495-30.17-12.497-8-8.002-12.497-18.854-12.497-30.17zM810.667 661.333c0-8.439-2.5-16.688-7.189-23.704s-11.354-12.485-19.149-15.715c-7.795-3.229-16.375-4.074-24.653-2.428-8.273 1.647-15.876 5.71-21.845 11.677-5.965 5.967-10.031 13.57-11.674 21.846-1.647 8.276-0.802 16.855 2.428 24.652 3.226 7.796 8.695 14.46 15.714 19.148 7.014 4.688 15.266 7.191 23.701 7.191 11.319 0 22.17-4.495 30.17-12.497 8.004-8.002 12.497-18.854 12.497-30.17zM298.668 64v306.347c24.71 8.969 46.060 25.327 61.148 46.857 15.088 21.525 23.182 47.177 23.182 73.463s-8.094 51.938-23.182 73.465c-15.087 21.527-36.437 37.886-61.148 46.855v221.013c0 11.316-4.495 22.168-12.497 30.17s-18.854 12.497-30.17 12.497c-11.316 0-22.168-4.495-30.17-12.497s-12.497-18.854-12.497-30.17v-221.013c-24.711-8.969-46.060-25.328-61.148-46.855s-23.182-47.178-23.182-73.465c0-26.287 8.094-51.938 23.182-73.463 15.088-21.53 36.437-37.888 61.148-46.857v-306.347c0-11.315 4.495-22.17 12.497-30.17s18.854-12.497 30.17-12.497c11.316 0 22.168 4.497 30.17 12.497s12.497 18.854 12.497 30.17zM213.335 490.667c0 8.439 2.502 16.687 7.191 23.706 4.688 7.014 11.352 12.484 19.148 15.714s16.375 4.073 24.652 2.428c8.276-1.647 15.879-5.709 21.846-11.678 5.967-5.965 10.031-13.568 11.677-21.845s0.801-16.858-2.428-24.653c-3.229-7.795-8.698-14.46-15.715-19.149s-15.266-7.189-23.704-7.189c-11.316 0-22.168 4.497-30.17 12.497s-12.497 18.854-12.497 30.17z" />
<glyph unicode="&#xe925;" glyph-name="gallery" d="M768 832h-512c-33.948 0-66.505-13.486-90.51-37.49s-37.49-56.562-37.49-90.51v-512c0-33.946 13.486-66.505 37.49-90.509s56.562-37.491 90.51-37.491h512c33.946 0 66.505 13.487 90.509 37.491s37.491 56.563 37.491 90.509v512c0 33.948-13.487 66.505-37.491 90.51s-56.563 37.49-90.509 37.49zM256 746.667h512c11.315 0 22.17-4.495 30.17-12.497s12.497-18.854 12.497-30.17v-356.693l-136.533 116.48c-21.154 17.408-47.697 26.923-75.093 26.923s-53.939-9.515-75.093-26.923l-310.613-258.987v499.2c0 11.316 4.495 22.168 12.497 30.17s18.854 12.497 30.17 12.497zM768 149.333h-488.107l298.667 249.173c5.739 4.258 12.693 6.562 19.84 6.562s14.101-2.304 19.84-6.562l192.427-163.84v-42.667c0-11.315-4.497-22.17-12.497-30.17s-18.854-12.497-30.17-12.497zM341.333 533.333c35.346 0 64 28.654 64 64s-28.654 64-64 64c-35.346 0-64-28.654-64-64s28.654-64 64-64z" />
<glyph unicode="&#xe926;" glyph-name="globe-outline" d="M938.667 448c0 56.030-11.038 111.513-32.478 163.278-21.444 51.766-52.868 98.801-92.489 138.421s-86.656 71.048-138.423 92.49c-51.763 21.442-107.247 32.478-163.277 32.478-113.159 0-221.683-44.952-301.699-124.968s-124.968-188.54-124.968-301.699c0-113.161 44.952-221.683 124.968-301.7 80.016-80.013 188.54-124.966 301.699-124.966 113.161 0 221.683 44.954 301.7 124.966 80.013 80.017 124.966 188.54 124.966 301.7v0zM850.347 490.667h-125.013c-7.036 100.346-41.417 196.849-99.413 279.040 59.584-21.161 112.115-58.456 151.744-107.727s64.789-108.579 72.683-171.313v0zM387.413 405.333h252.587c-10.918-105.412-55.846-204.407-128-282.027-72.102 77.295-116.003 176.67-124.587 282.027v0zM387.413 490.667c9.937 104.882 53.658 203.703 124.587 281.6 72.734-77.061 117.764-176.13 128-281.6h-252.587zM402.773 770.987c-58.302-82.646-93.235-179.487-101.12-280.32h-128c8.060 63.509 33.818 123.472 74.333 173.040s94.152 86.743 154.787 107.28v0zM173.653 405.333h128c7.027-100.749 41.723-197.602 100.267-279.893-60.417 20.638-113.835 57.805-154.186 107.281s-66.016 109.278-74.081 172.612v0zM623.787 125.867c58.385 82.317 93.47 178.867 101.547 279.467h125.867c-8.068-63.155-33.643-122.799-73.83-172.186-40.183-49.382-93.385-86.545-153.583-107.281v0z" />
<glyph unicode="&#xe927;" glyph-name="home" d="M871.253 525.653l-328.96 336.213c-3.968 3.999-8.687 7.173-13.884 9.339-5.201 2.166-10.778 3.281-16.41 3.281s-11.209-1.115-16.41-3.281c-5.197-2.166-9.916-5.34-13.884-9.339l-328.96-336.64c-7.96-8.026-14.246-17.549-18.495-28.023s-6.373-21.687-6.252-32.99v-357.547c-0.033-21.841 8.311-42.863 23.312-58.739s35.519-25.395 57.328-26.594h606.72c21.807 1.199 42.325 10.718 57.327 26.594s23.347 36.898 23.313 58.739v357.547c0.034 22.916-8.841 44.945-24.747 61.44v0zM426.666 106.667v256h170.667v-256h-170.667zM810.667 106.667h-128v298.667c0 11.315-4.497 22.17-12.497 30.17s-18.854 12.497-30.17 12.497h-256c-11.316 0-22.168-4.497-30.17-12.497s-12.497-18.854-12.497-30.17v-298.667h-128v359.253l298.667 305.066 298.667-306.773v-357.547z" />
<glyph unicode="&#xe928;" glyph-name="hours" d="M552.747 488.956h122.88c10.863 0 21.282-4.314 28.962-11.998 7.684-7.68 11.998-18.099 11.998-28.962s-4.314-21.282-11.998-28.962c-7.68-7.68-18.099-11.998-28.962-11.998h-163.84c-10.863 0-21.282 4.318-28.962 11.998-7.684 7.68-11.998 18.099-11.998 28.962v163.84c0 10.863 4.314 21.282 11.998 28.963 7.68 7.682 18.099 11.997 28.962 11.997s21.282-4.315 28.962-11.997c7.684-7.681 11.998-18.1 11.998-28.963v-122.88zM284.439 788.569c67.358 45.008 146.549 69.030 227.561 69.030 53.79 0 107.055-10.595 156.749-31.179s94.848-50.755 132.881-88.79c38.037-38.035 68.207-83.189 88.794-132.884 20.582-49.695 31.177-102.956 31.177-156.746 0-81.011-24.021-160.205-69.030-227.563-45.005-67.358-108.975-119.859-183.821-150.861s-157.201-39.113-236.655-23.309c-79.456 15.808-152.44 54.818-209.724 112.102-57.283 57.28-96.294 130.266-112.099 209.719s-7.693 161.813 23.309 236.657c31.002 74.845 83.501 138.815 150.859 183.823zM329.952 175.543c53.887-36.006 117.242-55.223 182.048-55.223 86.908 0 170.253 34.522 231.706 95.974s95.974 144.798 95.974 231.706c0 64.806-19.217 128.162-55.223 182.048s-87.181 95.886-147.059 120.687c-59.874 24.801-125.76 31.29-189.325 18.647-63.562-12.644-121.949-43.852-167.776-89.679s-77.036-104.214-89.679-167.776c-12.644-63.565-6.155-129.451 18.647-189.325 24.801-59.878 66.801-111.053 120.688-147.059z" />
<glyph unicode="&#xe929;" glyph-name="info" d="M512 874.667c-84.386 0-166.878-25.024-237.043-71.906s-124.852-113.519-157.145-191.482c-32.294-77.962-40.743-163.752-24.28-246.516s57.099-158.788 116.77-218.462c59.67-59.669 135.695-100.305 218.46-116.77 82.765-16.461 168.555-8.013 246.515 24.282 77.965 32.294 144.602 86.98 191.484 157.146s71.906 152.657 71.906 237.043c0 56.030-11.038 111.513-32.478 163.278s-52.868 98.801-92.489 138.421c-39.62 39.619-86.656 71.048-138.423 92.49-51.763 21.442-107.247 32.478-163.277 32.478zM512 106.667c-67.507 0-133.502 20.019-189.635 57.523-56.132 37.508-99.881 90.816-125.716 153.186s-32.594 131.004-19.424 197.214c13.17 66.213 45.679 127.033 93.416 174.769s108.556 80.245 174.769 93.416c66.21 13.17 134.844 6.411 197.214-19.424s115.678-69.584 153.186-125.716c37.504-56.132 57.523-122.123 57.523-189.635 0-90.526-35.959-177.348-99.972-241.361-64.013-64.009-150.835-99.972-241.361-99.972zM512 576c23.565 0 42.667 19.103 42.667 42.667s-19.102 42.667-42.667 42.667c-23.565 0-42.667-19.103-42.667-42.667s19.102-42.667 42.667-42.667zM512 533.333c-11.315 0-22.17-4.497-30.17-12.497s-12.497-18.854-12.497-30.17v-213.333c0-11.315 4.497-22.17 12.497-30.17s18.854-12.497 30.17-12.497c11.315 0 22.17 4.497 30.17 12.497s12.497 18.854 12.497 30.17v213.333c0 11.315-4.497 22.17-12.497 30.17s-18.854 12.497-30.17 12.497z" />
<glyph unicode="&#xe92a;" glyph-name="info-filled" d="M512 874.667c-84.386 0-166.878-25.024-237.043-71.906s-124.852-113.519-157.145-191.482c-32.294-77.962-40.743-163.752-24.28-246.516s57.099-158.788 116.77-218.462c59.67-59.669 135.695-100.305 218.46-116.77 82.765-16.461 168.555-8.013 246.515 24.282 77.965 32.294 144.602 86.98 191.484 157.146s71.906 152.657 71.906 237.043c0 56.030-11.038 111.513-32.478 163.278s-52.868 98.801-92.489 138.421c-39.62 39.619-86.656 71.048-138.423 92.49-51.763 21.442-107.247 32.478-163.277 32.478v0zM554.667 277.333c0-11.315-4.497-22.17-12.497-30.17s-18.854-12.497-30.17-12.497c-11.315 0-22.17 4.497-30.17 12.497s-12.497 18.854-12.497 30.17v213.333c0 11.315 4.497 22.17 12.497 30.17s18.854 12.497 30.17 12.497c11.315 0 22.17-4.497 30.17-12.497s12.497-18.854 12.497-30.17v-213.333zM512 576c-8.439 0-16.687 2.502-23.706 7.191-7.014 4.688-12.484 11.352-15.714 19.148s-4.075 16.375-2.428 24.652c1.647 8.276 5.709 15.879 11.678 21.846s13.568 10.031 21.845 11.677c8.277 1.646 16.858 0.801 24.653-2.428s14.46-8.698 19.149-15.715c4.689-7.017 7.189-15.266 7.189-23.704 0-11.316-4.497-22.168-12.497-30.17s-18.854-12.497-30.17-12.497z" />
<glyph unicode="&#xe92b;" glyph-name="jobs" d="M810.667 661.333h-128v64c0 28.29-11.238 55.421-31.241 75.425-20.006 20.004-47.138 31.242-75.426 31.242h-128c-28.29 0-55.421-11.238-75.425-31.242s-31.242-47.135-31.242-75.425v-64h-128c-33.948 0-66.505-13.486-90.51-37.49s-37.49-56.562-37.49-90.51v-341.333c0-33.946 13.486-66.505 37.49-90.509s56.562-37.491 90.51-37.491h597.333c33.946 0 66.505 13.487 90.509 37.491s37.491 56.563 37.491 90.509v341.333c0 33.948-13.487 66.505-37.491 90.51s-56.563 37.49-90.509 37.49zM640 576v-426.667h-256v426.667h256zM426.667 725.333c0 5.658 2.249 11.084 6.246 15.085 4.002 4.001 9.429 6.249 15.087 6.249h128c5.658 0 11.085-2.248 15.087-6.249 3.998-4 6.246-9.427 6.246-15.085v-64h-170.667v64zM170.667 192v341.333c0 11.316 4.495 22.168 12.497 30.17s18.854 12.497 30.17 12.497h85.333v-426.667h-85.333c-11.316 0-22.168 4.497-30.17 12.497s-12.497 18.854-12.497 30.17zM853.333 192c0-11.315-4.497-22.17-12.497-30.17s-18.854-12.497-30.17-12.497h-85.333v426.667h85.333c11.315 0 22.17-4.495 30.17-12.497s12.497-18.854 12.497-30.17v-341.333z" />
<glyph unicode="&#xe92c;" glyph-name="link" d="M341.335 448c0-11.315 4.495-22.17 12.497-30.17s18.854-12.497 30.17-12.497h255.998c11.319 0 22.17 4.497 30.17 12.497 8.004 8 12.497 18.854 12.497 30.17s-4.493 22.17-12.497 30.17c-8 8-18.85 12.497-30.17 12.497h-255.998c-11.316 0-22.168-4.497-30.17-12.497s-12.497-18.854-12.497-30.17zM384.002 277.333h-76.373c-43.846-1.169-86.552 14.054-119.771 42.697s-54.561 68.642-59.856 112.183c-2.202 23.701 0.579 47.603 8.164 70.17 7.585 22.562 19.807 43.291 35.88 60.851s35.642 31.563 57.449 41.109c21.807 9.547 45.37 14.426 69.175 14.324h85.333c11.316 0 22.168 4.495 30.17 12.497s12.495 18.854 12.495 30.17c0 11.316-4.494 22.168-12.495 30.17s-18.854 12.497-30.17 12.497h-76.373c-63.244 0.845-124.665-21.182-172.958-62.027s-80.207-97.759-89.869-160.266c-4.802-36.156-1.824-72.922 8.737-107.831s28.46-67.162 52.497-94.592c24.038-27.43 53.66-49.412 86.882-64.465s69.277-22.831 105.75-22.818h85.333c11.316 0 22.168 4.497 30.17 12.497s12.495 18.854 12.495 30.17c0 11.315-4.494 22.17-12.495 30.17s-18.854 12.497-30.17 12.497zM981.333 480.427c-9.54 63.295-41.852 120.933-90.871 162.097s-111.377 63.023-175.369 61.477h-64.427c-34.56 0-53.333-19.2-53.333-42.667 0-11.316 4.497-22.168 12.497-30.17 8.004-8.001 18.854-12.497 30.17-12.497h76.373c43.849 1.17 86.554-14.054 119.774-42.696 33.216-28.642 54.558-68.643 59.853-112.184 2.206-23.701-0.576-47.603-8.162-70.17-7.586-22.562-19.806-43.29-35.878-60.851-16.073-17.557-35.644-31.561-57.451-41.109-21.807-9.545-45.367-14.426-69.175-14.323h-85.333c-11.315 0-22.165-4.497-30.17-12.497-8-8-12.497-18.854-12.497-30.17s4.497-22.17 12.497-30.17c8.004-8 18.854-12.497 30.17-12.497h85.333c36.531-0.294 72.7 7.232 106.082 22.076 33.378 14.844 63.194 36.659 87.445 63.979 24.247 27.324 42.372 59.516 53.146 94.421 10.778 34.906 13.956 71.714 9.327 107.951z" />
<glyph unicode="&#xe92d;" glyph-name="list" d="M170.667 618.667c23.564 0 42.667 19.103 42.667 42.667s-19.103 42.667-42.667 42.667c-23.564 0-42.667-19.103-42.667-42.667s19.103-42.667 42.667-42.667zM170.667 405.333c23.564 0 42.667 19.102 42.667 42.667s-19.103 42.667-42.667 42.667c-23.564 0-42.667-19.102-42.667-42.667s19.103-42.667 42.667-42.667zM170.667 192c23.564 0 42.667 19.102 42.667 42.667s-19.103 42.667-42.667 42.667c-23.564 0-42.667-19.102-42.667-42.667s19.103-42.667 42.667-42.667zM855.893 490.667h-517.12c-22.15 0-40.107-17.958-40.107-40.107v-5.12c0-22.148 17.956-40.107 40.107-40.107h517.12c22.148 0 40.107 17.958 40.107 40.107v5.12c0 22.148-17.958 40.107-40.107 40.107zM855.893 277.333h-517.12c-22.15 0-40.107-17.958-40.107-40.107v-5.12c0-22.148 17.956-40.107 40.107-40.107h517.12c22.148 0 40.107 17.958 40.107 40.107v5.12c0 22.148-17.958 40.107-40.107 40.107zM855.893 704h-517.12c-22.15 0-40.107-17.956-40.107-40.107v-5.12c0-22.15 17.956-40.107 40.107-40.107h517.12c22.148 0 40.107 17.956 40.107 40.107v5.12c0 22.15-17.958 40.107-40.107 40.107z" />
<glyph unicode="&#xe92e;" glyph-name="locations" d="M635.601 550.482c0-68.233-55.317-123.551-123.55-123.551-68.237 0-123.551 55.317-123.551 123.551 0 68.235 55.314 123.55 123.551 123.55 68.233 0 123.55-55.315 123.55-123.55zM550.268 550.482c0-21.108-17.109-38.217-38.217-38.217s-38.217 17.109-38.217 38.217c0 21.106 17.109 38.217 38.217 38.217s38.217-17.11 38.217-38.217zM398.23 89.745c47.496-91.183 180.483-91.089 227.98 0.166l167.232 321.98c24.499 44.352 38.498 95.142 38.498 149.117 0 173.228-143.236 313.658-319.97 313.658s-319.97-140.431-319.97-313.658c0-50.378 11.999-97.985 33.497-140.166l172.733-331.098zM718.746 453.15l-0.529-0.956-167.714-322.91c-15.701-30.114-61.056-29.943-76.591-0.115l-172.555 330.752c-15.385 30.315-24.023 64.55-24.023 101.087 0 124.509 103.424 228.325 234.637 228.325s234.637-103.817 234.637-228.325c0-39.024-10.082-75.675-27.861-107.858z" />
<glyph unicode="&#xe92f;" glyph-name="lock" d="M725.333 618.667h-298.667v85.333c0 22.632 8.99 44.337 24.994 60.34s37.709 24.994 60.339 24.994c22.63 0 44.335-8.99 60.339-24.994s24.994-37.708 24.994-60.34c0-11.316 4.497-22.168 12.497-30.17s18.854-12.497 30.17-12.497c11.315 0 22.17 4.495 30.17 12.497s12.497 18.854 12.497 30.17c0 45.264-17.98 88.673-49.988 120.68-32.004 32.006-75.413 49.987-120.678 49.987s-88.673-17.981-120.68-49.987c-32.006-32.006-49.987-75.416-49.987-120.68v-85.333h-42.667c-33.948 0-66.505-13.486-90.51-37.49s-37.49-56.564-37.49-90.51v-341.333c0-33.946 13.486-66.505 37.49-90.509s56.562-37.491 90.51-37.491h426.667c33.946 0 66.505 13.487 90.509 37.491s37.491 56.563 37.491 90.509v341.333c0 33.946-13.487 66.505-37.491 90.51s-56.563 37.49-90.509 37.49zM768 149.333c0-11.315-4.497-22.17-12.497-30.17s-18.854-12.497-30.17-12.497h-426.667c-11.316 0-22.168 4.497-30.17 12.497s-12.497 18.854-12.497 30.17v341.333c0 11.315 4.495 22.17 12.497 30.17s18.854 12.497 30.17 12.497h426.667c11.315 0 22.17-4.497 30.17-12.497s12.497-18.854 12.497-30.17v-341.333zM512 448c-25.314 0-50.065-7.505-71.113-21.572-21.050-14.063-37.456-34.057-47.144-57.442-9.688-23.39-12.223-49.126-7.284-73.958 4.939-24.828 17.129-47.637 35.031-65.536 17.9-17.903 40.709-30.093 65.537-35.034 24.832-4.937 50.569-2.402 73.958 7.287 23.386 9.685 43.379 26.091 57.442 47.142 14.067 21.047 21.572 45.798 21.572 71.113 0 33.946-13.487 66.505-37.491 90.509s-56.559 37.491-90.509 37.491zM512 277.333c-8.439 0-16.687 2.5-23.706 7.189-7.014 4.689-12.484 11.354-15.714 19.149s-4.075 16.375-2.428 24.653c1.647 8.277 5.709 15.881 11.678 21.845 5.965 5.969 13.568 10.031 21.845 11.678s16.858 0.802 24.653-2.428c7.795-3.23 14.46-8.7 19.149-15.714 4.689-7.019 7.189-15.266 7.189-23.706 0-11.315-4.497-22.17-12.497-30.17s-18.854-12.497-30.17-12.497z" />
<glyph unicode="&#xe930;" glyph-name="login" d="M716.523 179.55c8 8 18.85 12.493 30.165 12.493h42.658v511.917h-42.658c-11.315 0-22.165 4.494-30.165 12.495s-12.493 18.851-12.493 30.165c0 11.314 4.493 22.165 12.493 30.165s18.85 12.495 30.165 12.495h85.321c11.311 0 22.161-4.495 30.165-12.495 8-8 12.493-18.851 12.493-30.165v-597.234c0-11.315-4.493-22.165-12.493-30.165-8.004-8-18.854-12.497-30.165-12.497h-85.321c-11.315 0-22.165 4.497-30.165 12.497s-12.493 18.85-12.493 30.165c0 11.311 4.493 22.165 12.493 30.165zM533.269 643.322l120.303-170.639c5.214-7.394 7.945-16.26 7.791-25.31-0.154-9.045-3.183-17.813-8.644-25.028l-127.979-170.637c-3.977-5.299-9.126-9.6-15.053-12.561-5.922-2.961-12.454-4.506-19.076-4.506-9.229 0-18.21 2.995-25.596 8.533-4.48 3.362-8.256 7.573-11.11 12.395-2.854 4.817-4.732 10.155-5.525 15.701-0.794 5.542-0.482 11.191 0.905 16.619 1.391 5.427 3.836 10.526 7.198 15.010l76.787 102.383h-341.276c-11.314 0-22.165 4.493-30.165 12.493s-12.495 18.85-12.495 30.165c0 11.315 4.495 22.165 12.495 30.165s18.851 12.493 30.165 12.493h345.116l-73.374 103.238c-3.273 4.585-5.606 9.773-6.865 15.265s-1.412 11.178-0.461 16.73c0.951 5.553 2.991 10.862 6.007 15.621s6.942 8.874 11.558 12.107c9.229 6.477 20.646 9.036 31.761 7.117 11.11-1.918 21.009-8.158 27.533-17.355z" />
<glyph unicode="&#xe931;" glyph-name="logout" d="M298.667 704c11.316 0 22.168 4.495 30.17 12.497s12.497 18.854 12.497 30.17c0 11.316-4.495 22.168-12.497 30.17s-18.854 12.497-30.17 12.497h-85.333c-11.316 0-22.168-4.495-30.17-12.497s-12.497-18.854-12.497-30.17v-597.333c0-11.315 4.495-22.17 12.497-30.17s18.854-12.497 30.17-12.497h85.333c11.316 0 22.168 4.497 30.17 12.497s12.497 18.854 12.497 30.17c0 11.315-4.495 22.17-12.497 30.17s-18.854 12.497-30.17 12.497h-42.667v512h42.667zM888.32 472.747l-120.32 170.667c-6.524 9.199-16.427 15.439-27.541 17.358-11.11 1.919-22.532-0.64-31.765-7.118-4.617-3.234-8.542-7.349-11.558-12.109s-5.056-10.070-6.012-15.623c-0.951-5.554-0.794-11.241 0.465-16.733s3.593-10.682 6.865-15.267l73.387-103.253h-345.173c-11.316 0-22.168-4.497-30.17-12.497s-12.497-18.854-12.497-30.17c0-11.315 4.495-22.17 12.497-30.17s18.854-12.497 30.17-12.497h341.333l-76.8-102.4c-3.362-4.484-5.807-9.583-7.198-15.010s-1.698-11.076-0.909-16.623c0.794-5.547 2.671-10.884 5.525-15.706s6.63-9.033 11.115-12.395c7.386-5.538 16.367-8.533 25.6-8.533 6.622 0 13.158 1.54 19.081 4.506 5.926 2.961 11.081 7.262 15.053 12.561l128 170.667c5.466 7.215 8.491 15.983 8.644 25.033 0.154 9.054-2.573 17.916-7.791 25.314z" />
<glyph unicode="&#xe932;" glyph-name="menu" d="M855.467 490.667h-686.933c-22.386 0-40.533-18.146-40.533-40.533v-4.267c0-22.387 18.147-40.533 40.533-40.533h686.933c22.387 0 40.533 18.146 40.533 40.533v4.267c0 22.387-18.146 40.533-40.533 40.533zM855.467 277.333h-686.933c-22.386 0-40.533-18.146-40.533-40.533v-4.267c0-22.387 18.147-40.533 40.533-40.533h686.933c22.387 0 40.533 18.146 40.533 40.533v4.267c0 22.387-18.146 40.533-40.533 40.533zM855.467 704h-686.933c-22.386 0-40.533-18.147-40.533-40.533v-4.267c0-22.386 18.147-40.533 40.533-40.533h686.933c22.387 0 40.533 18.147 40.533 40.533v4.267c0 22.386-18.146 40.533-40.533 40.533z" />
<glyph unicode="&#xe933;" glyph-name="minus" d="M810.667 490.667h-597.333c-11.316 0-22.168-4.497-30.17-12.497s-12.497-18.854-12.497-30.17c0-11.315 4.495-22.17 12.497-30.17s18.854-12.497 30.17-12.497h597.333c11.315 0 22.17 4.497 30.17 12.497s12.497 18.854 12.497 30.17c0 11.315-4.497 22.17-12.497 30.17s-18.854 12.497-30.17 12.497z" />
<glyph unicode="&#xe934;" glyph-name="more-options" d="M512 362.667c47.13 0 85.333 38.204 85.333 85.333s-38.204 85.333-85.333 85.333c-47.13 0-85.333-38.204-85.333-85.333s38.204-85.333 85.333-85.333zM810.667 362.667c47.13 0 85.333 38.204 85.333 85.333s-38.204 85.333-85.333 85.333c-47.13 0-85.333-38.204-85.333-85.333s38.204-85.333 85.333-85.333zM213.333 362.667c47.128 0 85.333 38.204 85.333 85.333s-38.205 85.333-85.333 85.333c-47.128 0-85.333-38.204-85.333-85.333s38.205-85.333 85.333-85.333z" />
<glyph unicode="&#xe935;" glyph-name="notes" d="M810.889 832h-597.332c-33.947 0-66.505-13.486-90.509-37.49s-37.49-56.562-37.49-90.509v-640c0.013-7.561 2.035-14.98 5.858-21.504 3.823-6.519 9.311-11.908 15.902-15.616 6.377-3.614 13.577-5.521 20.907-5.547 7.658 0.004 15.174 2.065 21.76 5.973l191.573 116.053c7.081 4.215 15.232 6.293 23.467 5.973h445.865c33.95 0 66.505 13.487 90.509 37.491s37.491 56.563 37.491 90.509v426.667c0 33.947-13.487 66.505-37.491 90.509s-56.559 37.49-90.509 37.49zM853.555 277.333c0-11.315-4.493-22.165-12.497-30.17-8-8-18.854-12.497-30.17-12.497h-445.865c-23.304 0.021-46.17-6.323-66.133-18.347l-128-76.8v564.48c0 11.316 4.495 22.168 12.497 30.17s18.854 12.497 30.17 12.497h597.332c11.315 0 22.17-4.495 30.17-12.497 8.004-8.002 12.497-18.854 12.497-30.17v-426.667zM281.6 490.752c0 23.612 19.141 42.752 42.752 42.752h16.896c23.611 0 42.752-19.141 42.752-42.752s-19.141-42.752-42.752-42.752h-16.896c-23.611 0-42.752 19.14-42.752 42.752zM460.8 490.752c0 23.612 19.14 42.752 42.752 42.752h16.896c23.612 0 42.752-19.141 42.752-42.752s-19.14-42.752-42.752-42.752h-16.896c-23.612 0-42.752 19.14-42.752 42.752zM640 490.752c0 23.612 19.14 42.752 42.752 42.752h16.896c23.612 0 42.752-19.141 42.752-42.752s-19.14-42.752-42.752-42.752h-16.896c-23.612 0-42.752 19.14-42.752 42.752z" />
<glyph unicode="&#xe936;" glyph-name="notification" d="M725.333 874.667h-426.667c-33.948 0-66.505-13.486-90.51-37.49s-37.49-56.562-37.49-90.51v-597.333c0-33.946 13.486-66.505 37.49-90.509s56.562-37.491 90.51-37.491h426.667c33.946 0 66.505 13.487 90.509 37.491s37.491 56.563 37.491 90.509v597.333c0 33.948-13.487 66.505-37.491 90.51s-56.563 37.49-90.509 37.49zM768 149.333c0-11.315-4.497-22.17-12.497-30.17s-18.854-12.497-30.17-12.497h-426.667c-11.316 0-22.168 4.497-30.17 12.497s-12.497 18.854-12.497 30.17v597.333c0 11.316 4.495 22.168 12.497 30.17s18.854 12.497 30.17 12.497h426.667c11.315 0 22.17-4.495 30.17-12.497s12.497-18.854 12.497-30.17v-597.333zM512 192c35.345 0 64 28.655 64 64s-28.655 64-64 64c-35.345 0-64-28.655-64-64s28.655-64 64-64zM618.667 704h-213.333c-11.316 0-22.168-4.495-30.17-12.497s-12.497-18.854-12.497-30.17c0-11.316 4.495-22.168 12.497-30.17s18.854-12.497 30.17-12.497h213.333c11.315 0 22.17 4.495 30.17 12.497s12.497 18.854 12.497 30.17c0 11.316-4.497 22.168-12.497 30.17s-18.854 12.497-30.17 12.497z" />
<glyph unicode="&#xe937;" glyph-name="on-site" d="M576 554.667c0-35.345-28.655-64-64-64s-64 28.655-64 64c0 35.346 28.655 64 64 64s64-28.654 64-64zM271.84 775.902c63.916 63.276 150.222 98.769 240.16 98.764 89.937 0.005 176.243-35.488 240.162-98.764 63.915-63.276 100.271-149.221 101.171-239.156 0-233.813-298.667-494.080-313.6-505.173-7.727-6.609-17.562-10.244-27.733-10.244s-20.006 3.635-27.733 10.244l-0.068 0.060c-13.781 11.942-313.532 271.71-313.532 505.114 0.899 89.935 37.258 175.88 101.173 239.156zM429.035 430.502c24.559-16.41 53.431-25.169 82.965-25.169 39.607 0 77.589 15.731 105.596 43.738s43.738 65.988 43.738 105.596c0 29.535-8.759 58.407-25.169 82.965-16.405 24.558-39.731 43.698-67.017 55.001s-57.314 14.26-86.281 8.498c-28.966-5.762-55.578-19.985-76.462-40.87s-35.107-47.493-40.87-76.461c-5.762-28.968-2.805-58.996 8.498-86.281s30.443-50.611 55.001-67.017z" />
<glyph unicode="&#xe938;" glyph-name="password" d="M725.333 618.667h-42.667v80.64c0 45.264-17.98 88.674-49.988 120.68-32.004 32.006-75.413 49.987-120.678 49.987s-88.673-17.981-120.68-49.987c-32.006-32.006-49.987-75.416-49.987-120.68v-80.64h-42.667c-33.948 0-66.505-13.486-90.51-37.49s-37.49-56.561-37.49-90.511v-341.333c0-33.946 13.486-66.505 37.49-90.509s56.562-37.491 90.51-37.491h426.667c33.946 0 66.505 13.487 90.509 37.491s37.491 56.563 37.491 90.509v341.333c0 33.95-13.487 66.506-37.491 90.511s-56.563 37.49-90.509 37.49zM426.667 699.307c-0.574 23.241 8.081 45.763 24.077 62.635 15.991 16.873 38.020 26.722 61.257 27.392 23.236-0.67 45.265-10.519 61.257-27.392 15.996-16.873 24.653-39.394 24.077-62.635v-80.64h-170.667v80.64zM768 149.333c0-11.315-4.497-22.17-12.497-30.17s-18.854-12.497-30.17-12.497h-426.667c-11.316 0-22.168 4.497-30.17 12.497s-12.497 18.854-12.497 30.17v341.333c0 11.315 4.495 22.17 12.497 30.17 8.002 8.004 18.854 12.497 30.17 12.497h426.667c11.315 0 22.17-4.493 30.17-12.497 8-8 12.497-18.854 12.497-30.17v-341.333zM512 448c-25.314 0-50.065-7.505-71.113-21.572-21.050-14.063-37.456-34.057-47.144-57.442-9.688-23.39-12.223-49.126-7.284-73.958 4.939-24.828 17.129-47.637 35.031-65.536 17.9-17.903 40.709-30.093 65.537-35.034 24.832-4.937 50.569-2.402 73.958 7.287 23.386 9.685 43.379 26.091 57.442 47.142 14.067 21.047 21.572 45.798 21.572 71.113 0 33.946-13.487 66.505-37.491 90.509s-56.559 37.491-90.509 37.491zM512 277.333c-8.439 0-16.687 2.5-23.706 7.189-7.014 4.689-12.484 11.354-15.714 19.149s-4.075 16.375-2.428 24.653c1.647 8.277 5.709 15.881 11.678 21.845 5.965 5.969 13.568 10.031 21.845 11.678s16.858 0.802 24.653-2.428c7.795-3.23 14.46-8.7 19.149-15.714 4.689-7.019 7.189-15.266 7.189-23.706 0-11.315-4.497-22.17-12.497-30.17s-18.854-12.497-30.17-12.497z" />
<glyph unicode="&#xe939;" glyph-name="payments" d="M512.068 320c70.69 0 128 57.306 128 128s-57.31 128-128 128c-70.694 0-128-57.306-128-128s57.306-128 128-128zM469.402 448c0 23.565 19.102 42.667 42.667 42.667s42.667-19.102 42.667-42.667c0-23.565-19.102-42.667-42.667-42.667s-42.667 19.102-42.667 42.667zM810.735 746.667h-597.334c-70.693 0-128-57.308-128-128v-341.333c0-70.694 57.307-128 128-128h597.334c70.69 0 128 57.306 128 128v341.333c0 70.692-57.31 128-128 128zM781.513 661.333h29.222c23.565 0 42.667-19.102 42.667-42.667v-29.221c-6.558-2.771-13.769-4.303-21.333-4.303-30.298 0-54.857 24.56-54.857 54.857 0 7.567 1.532 14.775 4.301 21.333zM832.068 512c7.266 0 14.396 0.606 21.333 1.771v-131.541c-6.938 1.165-14.067 1.771-21.333 1.771-70.694 0-128-57.306-128-128 0-7.27 0.606-14.396 1.771-21.333h-387.541c1.164 6.938 1.77 14.063 1.77 21.333 0 70.694-57.308 128-128 128-7.269 0-14.396-0.606-21.333-1.771v131.541c6.938-1.165 14.065-1.771 21.333-1.771 70.692 0 128 57.308 128 128 0 7.269-0.606 14.396-1.77 21.333h387.541c-1.165-6.938-1.771-14.065-1.771-21.333 0-70.692 57.306-128 128-128zM853.402 277.333c0-23.565-19.102-42.667-42.667-42.667h-29.222c-2.769 6.558-4.301 13.769-4.301 21.333 0 30.298 24.559 54.857 54.857 54.857 7.565 0 14.775-1.532 21.333-4.301v-29.222zM246.925 256c0-7.565-1.532-14.775-4.303-21.333h-29.221c-23.564 0-42.667 19.102-42.667 42.667v29.222c6.558 2.769 13.766 4.301 21.333 4.301 30.297 0 54.857-24.559 54.857-54.857zM170.735 589.446v29.221c0 23.564 19.102 42.667 42.667 42.667h29.221c2.771-6.558 4.303-13.767 4.303-21.333 0-30.297-24.56-54.857-54.857-54.857-7.567 0-14.775 1.532-21.333 4.303z" />
<glyph unicode="&#xe93a;" glyph-name="phone" d="M742.4 21.333c-174.195 0.226-341.192 69.525-464.367 192.7s-192.474 290.172-192.7 464.367c0 52.053 20.678 101.974 57.485 138.781s86.728 57.485 138.781 57.485c11.023 0.084 22.027-0.916 32.853-2.987 10.467-1.549 20.756-4.121 30.72-7.68 7.008-2.459 13.253-6.705 18.117-12.317s8.179-12.397 9.617-19.683l58.453-256c1.574-6.949 1.387-14.182-0.55-21.039-1.941-6.857-5.563-13.119-10.543-18.215-5.547-5.974-5.973-6.4-58.453-33.707 42.026-92.194 115.763-166.238 207.787-208.64 27.733 52.907 28.16 53.333 34.133 58.88 5.094 4.979 11.358 8.606 18.214 10.543s14.089 2.125 21.039 0.55l256-58.453c7.053-1.634 13.572-5.039 18.948-9.89 5.372-4.855 9.425-10.995 11.772-17.843 3.601-10.125 6.315-20.548 8.107-31.147 1.715-10.722 2.573-21.568 2.56-32.427-0.785-51.831-22.046-101.244-59.136-137.455-37.090-36.215-87.002-56.282-138.837-55.825v0zM281.6 789.334c-29.387-0.113-57.538-11.836-78.318-32.616s-32.503-48.931-32.616-78.318c0.113-151.599 60.385-296.956 167.581-404.152s252.553-167.467 404.152-167.582c29.389 0.111 57.536 11.836 78.319 32.614 20.779 20.783 32.503 48.934 32.614 78.319v14.080l-197.973 45.653-12.373-23.467c-19.2-37.12-33.28-64-69.12-49.493-70.703 25.306-134.882 66.048-187.873 119.258-52.99 53.214-93.462 117.559-118.474 188.369-15.36 33.28 13.653 48.64 50.347 67.84l23.467 11.52-45.653 197.973h-14.080z" />
<glyph unicode="&#xe93b;" glyph-name="plan" d="M631.514 537.782l-161.28-213.174-69.545 89.958c-6.959 8.934-17.185 14.741-28.427 16.137-11.242 1.399-22.58-1.719-31.52-8.674s-14.749-17.169-16.148-28.403c-1.4-11.234 1.722-22.566 8.682-31.497l103.678-132.595c4.019-5.082 9.143-9.178 14.985-11.985s12.241-4.25 18.722-4.215c6.519 0.017 12.945 1.523 18.786 4.403 5.841 2.884 10.948 7.066 14.921 12.224l194.987 255.808c6.903 9.045 9.929 20.459 8.41 31.735-1.523 11.273-7.462 21.481-16.516 28.378-9.050 6.897-20.476 9.919-31.757 8.4s-21.5-7.454-28.403-16.5h0.427zM263.284 789.333c17.571 49.715 64.984 85.333 120.716 85.333h256c55.731 0 103.147-35.619 120.717-85.333h7.283c70.694 0 128-57.308 128-128v-512c0-70.694-57.306-128-128-128h-512c-70.692 0-128 57.306-128 128v512c0 70.692 57.308 128 128 128h7.284zM263.284 704h-7.284c-23.564 0-42.667-19.103-42.667-42.667v-512c0-23.565 19.103-42.667 42.667-42.667h512c23.565 0 42.667 19.102 42.667 42.667v512c0 23.564-19.102 42.667-42.667 42.667h-7.283c-17.57-49.715-64.986-85.333-120.717-85.333h-256c-55.732 0-103.145 35.619-120.716 85.333zM640 704c23.565 0 42.667 19.103 42.667 42.667s-19.102 42.667-42.667 42.667h-256c-23.564 0-42.667-19.103-42.667-42.667s19.103-42.667 42.667-42.667h256z" />
<glyph unicode="&#xe93c;" glyph-name="plus" d="M810.667 490.667h-256v256c0 11.316-4.497 22.168-12.497 30.17s-18.854 12.497-30.17 12.497c-11.315 0-22.17-4.495-30.17-12.497s-12.497-18.854-12.497-30.17v-256h-256c-11.316 0-22.168-4.497-30.17-12.497s-12.497-18.854-12.497-30.17c0-11.315 4.495-22.17 12.497-30.17s18.854-12.497 30.17-12.497h256v-256c0-11.315 4.497-22.17 12.497-30.17s18.854-12.497 30.17-12.497c11.315 0 22.17 4.497 30.17 12.497s12.497 18.854 12.497 30.17v256h256c11.315 0 22.17 4.497 30.17 12.497s12.497 18.854 12.497 30.17c0 11.315-4.497 22.17-12.497 30.17s-18.854 12.497-30.17 12.497z" />
<glyph unicode="&#xe93d;" glyph-name="roles" d="M426.667 490.667c33.754 0 66.752 10.010 94.818 28.762 28.066 18.754 49.941 45.408 62.857 76.593 12.919 31.185 16.299 65.501 9.711 98.607-6.583 33.106-22.839 63.516-46.707 87.384s-54.276 40.122-87.381 46.708c-33.109 6.585-67.423 3.206-98.608-9.712s-57.84-34.792-76.593-62.858c-18.753-28.066-28.762-61.063-28.762-94.817 0-45.264 17.981-88.673 49.987-120.68s75.416-49.987 120.68-49.987zM426.667 746.667c16.879 0 33.374-5.005 47.407-14.381s24.973-22.704 31.433-38.296c6.455-15.593 8.145-32.751 4.855-49.303-3.294-16.553-11.422-31.758-23.356-43.692s-27.14-20.061-43.691-23.354c-16.555-3.293-33.711-1.603-49.304 4.856s-28.92 17.396-38.296 31.429c-9.376 14.033-14.381 30.531-14.381 47.409 0 22.632 8.99 44.337 24.994 60.34s37.708 24.994 60.34 24.994zM924.173 778.667c-8.491 7.458-19.597 11.243-30.874 10.523-11.281-0.72-21.811-5.885-29.286-14.363l-79.787-91.733-26.88 30.293c-7.526 8.487-18.112 13.637-29.436 14.317s-22.451-3.165-30.938-10.691c-8.486-7.525-13.636-18.113-14.319-29.436-0.678-11.322 3.166-22.451 10.692-30.938l59.307-66.56c4.036-4.474 8.977-8.041 14.494-10.468 5.513-2.427 11.482-3.658 17.506-3.612 5.986 0.068 11.891 1.394 17.331 3.894s10.291 6.115 14.242 10.613l111.36 128c7.509 8.437 11.371 19.508 10.731 30.786s-5.726 21.841-14.144 29.374zM215.477 317.854c56.011 56.013 131.978 87.479 211.189 87.479s155.179-31.467 211.187-87.479c56.013-56.009 87.479-131.977 87.479-211.187 0-11.315-4.497-22.17-12.497-30.17s-18.854-12.497-30.17-12.497c-11.315 0-22.17 4.497-30.17 12.497s-12.497 18.854-12.497 30.17c0 56.58-22.477 110.839-62.485 150.848-40.004 40.009-94.268 62.485-150.848 62.485s-110.842-22.477-150.849-62.485c-40.008-40.009-62.484-94.268-62.484-150.848 0-11.315-4.495-22.17-12.497-30.17s-18.854-12.497-30.17-12.497c-11.316 0-22.168 4.497-30.17 12.497s-12.497 18.854-12.497 30.17c0 79.211 31.467 155.179 87.477 211.187z" />
<glyph unicode="&#xe93e;" glyph-name="save" d="M858.453 588.373l-206.080 206.080c-23.983 24.012-56.516 37.517-90.453 37.547h-305.92c-33.948 0-66.505-13.486-90.51-37.49s-37.49-56.562-37.49-90.51v-512c0-33.946 13.486-66.505 37.49-90.509s56.562-37.491 90.51-37.491h512c33.946 0 66.505 13.487 90.509 37.491s37.491 56.563 37.491 90.509v305.92c-0.030 33.937-13.534 66.472-37.547 90.453v0zM426.667 149.333v85.333h170.667v-85.333h-170.667zM810.667 192c0-11.315-4.497-22.17-12.497-30.17s-18.854-12.497-30.17-12.497h-85.333v128c0 11.315-4.497 22.17-12.497 30.17s-18.854 12.497-30.17 12.497h-256c-11.316 0-22.168-4.497-30.17-12.497s-12.497-18.854-12.497-30.17v-128h-85.333c-11.316 0-22.168 4.497-30.17 12.497s-12.497 18.854-12.497 30.17v512c0 11.316 4.495 22.168 12.497 30.17s18.854 12.497 30.17 12.497h85.333v-213.333c0-11.315 4.495-22.17 12.497-30.17s18.854-12.497 30.17-12.497h170.667c11.315 0 22.17 4.497 30.17 12.497s12.497 18.854 12.497 30.17c0 11.316-4.497 22.168-12.497 30.17s-18.854 12.497-30.17 12.497h-128v170.667h135.253c11.298-0.157 22.118-4.577 30.293-12.373l206.080-206.080c3.955-3.985 7.083-8.717 9.207-13.914 2.121-5.197 3.2-10.765 3.166-16.38v-305.92z" />
<glyph unicode="&#xe93f;" glyph-name="search" d="M883.627 136.96l-145.067 144.64c46.805 59.627 72.201 133.261 72.107 209.067 0 67.509-20.019 133.503-57.523 189.635-37.508 56.132-90.816 99.881-153.186 125.716s-131.004 32.594-197.215 19.424c-66.212-13.17-127.032-45.679-174.768-93.416s-80.245-108.556-93.416-174.768c-13.17-66.211-6.411-134.845 19.424-197.215s69.584-115.678 125.716-153.186c56.132-37.504 122.125-57.523 189.635-57.523 75.806-0.094 149.44 25.301 209.067 72.107l144.64-145.067c3.968-3.998 8.687-7.172 13.884-9.34 5.201-2.167 10.778-3.281 16.41-3.281s11.209 1.114 16.41 3.281c5.197 2.167 9.916 5.342 13.884 9.34 3.998 3.968 7.172 8.687 9.34 13.884 2.167 5.201 3.281 10.778 3.281 16.41s-1.114 11.209-3.281 16.41c-2.167 5.197-5.342 9.916-9.34 13.884zM213.333 490.667c0 50.632 15.014 100.127 43.144 142.226s68.111 74.911 114.889 94.287c46.778 19.376 98.253 24.446 147.908 14.568 49.66-9.878 95.275-34.26 131.076-70.062 35.806-35.802 60.186-81.417 70.063-131.076 9.877-49.657 4.809-101.13-14.566-147.91s-52.19-86.758-94.289-114.889c-42.099-28.13-91.593-43.145-142.225-43.145-67.895 0-133.010 26.97-181.019 74.982-48.009 48.009-74.981 113.122-74.981 181.018z" />
<glyph unicode="&#xe940;" glyph-name="services" d="M858.453 673.706l-120.747 120.746c-23.983 24.012-56.516 37.517-90.453 37.547h-270.507c-33.936-0.030-66.472-13.535-90.453-37.547l-120.746-120.746c-24.012-23.982-37.517-56.517-37.547-90.453v-391.252c0-33.946 13.486-66.505 37.49-90.509s56.562-37.491 90.509-37.491h512c33.946 0 66.505 13.487 90.509 37.491s37.491 56.563 37.491 90.509v391.252c-0.030 33.936-13.538 66.472-37.547 90.453zM346.453 734.292c8.176 7.797 18.996 12.216 30.293 12.373h270.507c11.294-0.157 22.114-4.576 30.293-12.373l72.96-72.96h-477.014l72.96 72.96zM768 149.333h-512c-11.316 0-22.168 4.497-30.17 12.497s-12.497 18.854-12.497 30.17v383.999h597.333v-383.999c0-11.315-4.497-22.17-12.497-30.17-8.004-8-18.854-12.497-30.17-12.497zM640 490.667c-11.319 0-22.17-4.497-30.17-12.497-8.004-8-12.497-18.854-12.497-30.17 0-22.63-8.99-44.335-24.994-60.339s-37.709-24.994-60.339-24.994c-22.635 0-44.339 8.99-60.339 24.994-16.004 16.004-24.995 37.709-24.995 60.339 0 11.315-4.495 22.17-12.497 30.17s-18.854 12.497-30.17 12.497c-11.316 0-22.168-4.497-30.17-12.497s-12.497-18.854-12.497-30.17c0-45.265 17.981-88.674 49.987-120.678 32.006-32.009 75.415-49.988 120.681-49.988 45.261 0 88.67 17.98 120.678 49.988 32.004 32.004 49.988 75.413 49.988 120.678 0 11.315-4.497 22.17-12.497 30.17-8.004 8-18.854 12.497-30.17 12.497z" />
<glyph unicode="&#xe941;" glyph-name="arrow-left" d="M362.691 448.469c-0.020 9.971 3.453 19.631 9.813 27.307l213.334 256.001c7.241 8.713 17.647 14.193 28.932 15.233 11.281 1.040 22.515-2.444 31.228-9.686s14.191-17.649 15.232-28.931c1.041-11.282-2.445-22.515-9.685-31.229l-191.147-228.695 184.32-228.693c3.541-4.365 6.191-9.387 7.787-14.775s2.112-11.042 1.519-16.636c-0.593-5.589-2.287-11.008-4.983-15.94s-6.34-9.284-10.722-12.809c-4.386-3.904-9.536-6.865-15.117-8.691-5.585-1.826-11.486-2.479-17.335-1.92-5.845 0.563-11.516 2.325-16.653 5.18-5.133 2.854-9.626 6.737-13.188 11.405l-206.081 256c-5.356 7.898-7.909 17.361-7.253 26.88z" />
<glyph unicode="&#xe942;" glyph-name="slash" d="M512 874.667c-84.386 0-166.878-25.024-237.043-71.906s-124.852-113.519-157.145-191.482c-32.294-77.962-40.743-163.752-24.28-246.516s57.099-158.788 116.77-218.462c59.67-59.669 135.695-100.305 218.46-116.77 82.765-16.461 168.555-8.013 246.515 24.282 77.965 32.294 144.602 86.98 191.484 157.146s71.906 152.657 71.906 237.043c0 56.030-11.038 111.513-32.478 163.278s-52.868 98.801-92.489 138.421c-39.62 39.619-86.656 71.048-138.423 92.49-51.763 21.442-107.247 32.478-163.277 32.478v0zM853.333 448c0.094-75.806-25.301-149.44-72.107-209.067l-478.293 478.293c59.629 46.804 133.261 72.201 209.067 72.107 90.526 0 177.348-35.962 241.361-99.974s99.972-150.832 99.972-241.359zM170.667 448c-0.094 75.806 25.302 149.438 72.107 209.067l478.293-478.293c-59.627-46.805-133.261-72.201-209.067-72.107-90.527 0-177.347 35.964-241.359 99.972-64.012 64.013-99.974 150.835-99.974 241.361v0z" />
<glyph unicode="&#xe943;" glyph-name="stopwatch" d="M512 554.667c-23.565 0-42.667-19.103-42.667-42.667v-170.667c0-23.565 19.102-42.667 42.667-42.667s42.667 19.102 42.667 42.667v170.667c0 23.564-19.102 42.667-42.667 42.667zM426.667 896h170.667c23.565 0 42.667-19.103 42.667-42.667s-19.102-42.667-42.667-42.667h-42.667v-87.817c62.891-7.371 120.862-30.832 169.685-66.156l35.123 35.121c16.661 16.663 43.678 16.663 60.339 0s16.661-43.677 0-60.34l-32.606-32.605c54.515-63.458 87.458-145.984 87.458-236.203 0-200.294-162.372-362.667-362.667-362.667s-362.667 162.372-362.667 362.667c0 185.861 139.811 339.066 320 360.183v87.817h-42.667c-23.564 0-42.667 19.103-42.667 42.667s19.103 42.667 42.667 42.667zM512 85.333c153.169 0 277.333 124.164 277.333 277.333s-124.164 277.333-277.333 277.333c-153.167 0-277.333-124.164-277.333-277.333s124.166-277.333 277.333-277.333z" />
<glyph unicode="&#xe944;" glyph-name="time-back" d="M188.083 724.279l-75.979 52.254c-11.601 7.979-27.333-0.712-26.755-14.78l9.409-229.102c0.467-11.383 11.73-19.127 22.526-15.492l217.304 73.181c13.344 4.494 15.831 22.293 4.229 30.272l-79.875 54.934c43.938 49.018 101.475 84.7 166.027 101.997 87.546 23.458 180.824 11.177 259.318-34.14 58.432-33.772 105.557-84.088 135.428-144.606 29.875-60.518 41.161-128.524 32.439-195.451-8.725-66.923-37.073-129.762-81.463-180.599-44.39-50.833-102.839-87.386-167.979-105.050-43.435-11.947-88.815-15.113-133.487-9.31s-87.738 20.459-126.677 43.106c-23.571 13.807-45.564 30.144-65.59 48.721-3.965 4.279-8.764 7.701-14.102 10.057s-11.101 3.588-16.934 3.631c-5.834 0.038-11.614-1.114-16.984-3.392s-10.217-5.632-14.241-9.856c-4.025-4.224-7.141-9.225-9.158-14.699s-2.892-11.307-2.569-17.131c0.323-5.824 1.834-11.52 4.442-16.738s6.258-9.847 10.723-13.602c24.835-23.351 52.243-43.81 81.696-60.979 73.307-41.818 157.359-60.983 241.548-55.078s164.745 36.617 231.497 88.256c66.752 51.644 116.71 121.899 143.573 201.907 26.863 80.004 29.423 166.178 7.36 247.638-29.013 108.375-99.776 200.842-196.804 257.164-98.116 56.647-214.716 71.997-324.148 42.675-84.287-22.585-159.005-70.246-214.775-135.787zM471.3 651.665c0 23.592 19.127 42.717 42.718 42.717 23.595 0 42.718-19.125 42.718-42.717v-194.189l79.445-79.45c16.683-16.678 16.683-43.729 0-60.412-16.678-16.678-43.729-16.678-60.407 0l-104.474 104.474v229.577z" />
<glyph unicode="&#xe945;" glyph-name="timezy" d="M328.803 729.706c24.515 24.541 64 24.541 88.515 0l236.246-236.5c24.866-24.892 24.866-65.519 0-90.411l-236.246-236.501c-24.515-24.542-64-24.542-88.515 0l-236.247 236.501c-24.865 24.892-24.865 65.519 0 90.411l236.247 236.5zM562.052 685.024l136.38-136.527c52.169-52.229 52.169-137.468 0-189.696l-142.025-142.174 50.278-50.334c24.512-24.542 64-24.542 88.512 0l236.25 236.501c24.866 24.892 24.866 65.519 0 90.411l-236.25 236.501c-24.512 24.541-64 24.541-88.512 0l-44.634-44.682z" />
<glyph unicode="&#xe946;" glyph-name="total" d="M469.333 341.333c0 23.565 19.102 42.667 42.667 42.667s42.667-19.102 42.667-42.667c0-23.565-19.102-42.667-42.667-42.667s-42.667 19.102-42.667 42.667zM661.333 384c-23.565 0-42.667-19.102-42.667-42.667v-128c0-23.565 19.102-42.667 42.667-42.667s42.667 19.102 42.667 42.667v128c0 23.565-19.102 42.667-42.667 42.667zM320 469.333c0 23.565 19.103 42.667 42.667 42.667s42.667-19.102 42.667-42.667c0-23.565-19.103-42.667-42.667-42.667s-42.667 19.102-42.667 42.667zM362.667 384c-23.564 0-42.667-19.102-42.667-42.667s19.103-42.667 42.667-42.667c23.564 0 42.667 19.102 42.667 42.667s-19.103 42.667-42.667 42.667zM320 213.333c0 23.565 19.103 42.667 42.667 42.667s42.667-19.102 42.667-42.667c0-23.565-19.103-42.667-42.667-42.667s-42.667 19.102-42.667 42.667zM512 512c-23.565 0-42.667-19.102-42.667-42.667s19.102-42.667 42.667-42.667c23.565 0 42.667 19.102 42.667 42.667s-19.102 42.667-42.667 42.667zM469.333 213.333c0 23.565 19.102 42.667 42.667 42.667s42.667-19.102 42.667-42.667c0-23.565-19.102-42.667-42.667-42.667s-42.667 19.102-42.667 42.667zM661.333 512c-23.565 0-42.667-19.102-42.667-42.667s19.102-42.667 42.667-42.667c23.565 0 42.667 19.102 42.667 42.667s-19.102 42.667-42.667 42.667zM298.667 874.667h426.667c33.946 0 66.505-13.486 90.509-37.49s37.491-56.562 37.491-90.51v-597.333c0-33.95-13.487-66.505-37.491-90.509s-56.563-37.491-90.509-37.491h-426.667c-33.948 0-66.505 13.487-90.51 37.491s-37.49 56.559-37.49 90.509v597.333c0 33.948 13.486 66.505 37.49 90.51s56.562 37.49 90.51 37.49zM755.503 119.164c8 8 12.497 18.854 12.497 30.17v426.667h-512v-426.667c0-11.315 4.495-22.17 12.497-30.17s18.854-12.497 30.17-12.497h426.667c11.315 0 22.17 4.497 30.17 12.497zM256 661.333h512v85.333c0 11.316-4.497 22.168-12.497 30.17s-18.854 12.497-30.17 12.497h-426.667c-11.316 0-22.168-4.495-30.17-12.497s-12.497-18.854-12.497-30.17v-85.333z" />
<glyph unicode="&#xe947;" glyph-name="trash" d="M896 704.001h-213.333v71.253c-1.003 27.314-12.791 53.117-32.785 71.753-19.998 18.636-46.566 28.582-73.882 27.661h-128c-27.317 0.922-53.885-9.025-73.88-27.661s-31.785-44.438-32.786-71.753v-71.253h-213.333c-11.316 0-22.168-4.495-30.17-12.497s-12.497-18.854-12.497-30.17c0-11.316 4.495-22.168 12.497-30.17s18.854-12.497 30.17-12.497h42.667v-469.334c0-33.946 13.486-66.505 37.49-90.509s56.562-37.491 90.51-37.491h426.667c33.946 0 66.505 13.487 90.509 37.491s37.491 56.563 37.491 90.509v469.334h42.667c11.315 0 22.17 4.495 30.17 12.497s12.497 18.854 12.497 30.17c0 11.316-4.497 22.169-12.497 30.17s-18.854 12.497-30.17 12.497zM426.667 775.255c0 6.827 8.96 14.080 21.333 14.080h128c12.373 0 21.333-7.253 21.333-14.080v-71.253h-170.667v71.253zM768 149.333c0-11.315-4.497-22.165-12.497-30.17-8-8-18.854-12.497-30.17-12.497h-426.667c-11.316 0-22.168 4.497-30.17 12.497-8.001 8.004-12.497 18.854-12.497 30.17v469.334h512v-469.334zM384 234.667c11.316 0 22.168 4.497 30.17 12.497 8.001 8.004 12.497 18.854 12.497 30.17v170.667c0 11.315-4.495 22.17-12.497 30.17-8.002 8.004-18.854 12.497-30.17 12.497s-22.168-4.493-30.17-12.497c-8.001-8-12.497-18.854-12.497-30.17v-170.667c0-11.315 4.495-22.165 12.497-30.17 8.002-8 18.854-12.497 30.17-12.497zM640 234.667c11.315 0 22.17 4.497 30.17 12.497 8 8.004 12.497 18.854 12.497 30.17v170.667c0 11.315-4.497 22.17-12.497 30.17-8 8.004-18.854 12.497-30.17 12.497s-22.17-4.493-30.17-12.497c-8-8-12.497-18.854-12.497-30.17v-170.667c0-11.315 4.497-22.165 12.497-30.17 8-8 18.854-12.497 30.17-12.497z" />
<glyph unicode="&#xe948;" glyph-name="user" d="M512.068 490.667c33.754 0 66.752 10.010 94.818 28.762s49.941 45.408 62.857 76.593c12.919 31.185 16.299 65.501 9.711 98.607-6.583 33.106-22.839 63.516-46.707 87.384s-54.276 40.123-87.381 46.708c-33.109 6.585-67.422 3.206-98.607-9.712-31.187-12.918-57.841-34.793-76.595-62.858s-28.762-61.063-28.762-94.818c0-45.264 17.981-88.674 49.987-120.68s75.415-49.987 120.68-49.987zM512.068 746.666c16.879 0 33.374-5.004 47.407-14.381s24.973-22.704 31.433-38.296c6.455-15.593 8.145-32.751 4.855-49.303-3.294-16.553-11.422-31.758-23.356-43.692s-27.14-20.061-43.691-23.354c-16.555-3.293-33.711-1.603-49.306 4.856-15.59 6.458-28.919 17.396-38.293 31.429-9.378 14.033-14.383 30.531-14.383 47.409 0 22.632 8.99 44.337 24.994 60.34s37.709 24.993 60.339 24.993zM512.068 405.333c-79.211 0-155.179-31.467-211.19-87.479-56.011-56.009-87.477-131.977-87.477-211.187 0-11.315 4.495-22.17 12.497-30.17 8.002-8.004 18.854-12.497 30.17-12.497s22.168 4.493 30.17 12.497c8.001 8 12.497 18.854 12.497 30.17 0 56.58 22.476 110.839 62.484 150.848s94.269 62.485 150.85 62.485c56.58 0 110.844-22.477 150.848-62.485 40.009-40.009 62.485-94.268 62.485-150.848 0-11.315 4.497-22.17 12.497-30.17 8-8.004 18.854-12.497 30.17-12.497s22.17 4.493 30.17 12.497c8.004 8 12.497 18.854 12.497 30.17 0 79.211-31.467 155.179-87.475 211.187-56.013 56.013-131.981 87.479-211.191 87.479z" />
<glyph unicode="&#xe949;" glyph-name="view" d="M933.116 469.333c-27.307 47.36-177.493 285.014-432.64 277.334-235.945-5.973-372.478-213.333-409.598-277.334-3.745-6.485-5.716-13.845-5.716-21.333s1.972-14.848 5.716-21.333c26.88-46.507 170.667-277.333 421.971-277.333h10.667c235.947 5.973 372.907 213.333 409.6 277.333 3.746 6.485 5.717 13.845 5.717 21.333s-1.971 14.848-5.717 21.333zM521.382 234.667c-183.891-4.267-303.785 153.173-341.331 213.333 42.667 68.693 154.027 209.067 324.691 213.334 183.040 4.693 303.36-153.174 341.333-213.334-43.947-68.693-154.027-209.067-324.693-213.333zM511.996 597.334c-29.534 0-58.406-8.759-82.961-25.167-24.56-16.409-43.7-39.733-55.003-67.019s-14.26-57.314-8.498-86.281c5.762-28.966 19.985-55.578 40.869-76.463 20.887-20.885 47.494-35.106 76.46-40.866 28.971-5.764 58.995-2.807 86.281 8.495 27.29 11.302 50.611 30.443 67.021 55.002s25.165 53.431 25.165 82.965c0 39.607-15.731 77.589-43.738 105.595s-65.988 43.739-105.596 43.739zM511.996 384c-12.655 0-25.028 3.755-35.554 10.786s-18.726 17.028-23.573 28.723c-4.843 11.695-6.11 24.563-3.639 36.975 2.466 12.416 8.563 23.821 17.515 32.772 8.951 8.947 20.352 15.044 32.768 17.515s25.284 1.203 36.979-3.644c11.695-4.843 21.687-13.047 28.723-23.569 7.031-10.526 10.782-22.899 10.782-35.558 0-16.973-6.741-33.25-18.743-45.257-12.002-12.002-28.279-18.743-45.257-18.743z" />
<glyph unicode="&#xe94a;" glyph-name="warning-filled" d="M962.56 264.533l-327.253 542.72c-13.235 20.701-31.467 37.738-53.013 49.539-21.551 11.801-45.726 17.987-70.293 17.987-24.572 0-48.742-6.185-70.293-17.987s-39.782-28.837-53.014-49.539l-327.253-542.72c-11.561-19.273-17.844-41.246-18.218-63.714s5.173-44.642 16.085-64.286c12.616-22.114 30.876-40.478 52.915-53.222s47.066-19.409 72.525-19.311h654.508c25.289-0.269 50.206 6.135 72.23 18.573 22.020 12.433 40.375 30.46 53.21 52.254 11.23 19.849 16.956 42.338 16.58 65.143s-6.835 45.094-18.714 64.563v0zM512 234.667c-8.439 0-16.687 2.5-23.706 7.189-7.014 4.689-12.484 11.354-15.714 19.149s-4.075 16.375-2.428 24.653c1.647 8.277 5.709 15.881 11.678 21.845 5.965 5.969 13.568 10.031 21.845 11.678s16.853 0.802 24.653-2.428c7.795-3.23 14.46-8.7 19.145-15.714 4.689-7.019 7.194-15.266 7.194-23.706 0-11.315-4.497-22.17-12.497-30.17-8.004-8-18.854-12.497-30.17-12.497zM554.667 405.333c0-11.315-4.497-22.17-12.497-30.17-8.004-8-18.854-12.497-30.17-12.497s-22.17 4.497-30.17 12.497c-8.004 8-12.497 18.854-12.497 30.17v170.667c0 11.316 4.493 22.168 12.497 30.17 8 8.001 18.854 12.497 30.17 12.497s22.165-4.495 30.17-12.497c8-8.002 12.497-18.854 12.497-30.17v-170.667z" />
</font>
</defs>
</svg>
